<?xml version="1.0" standalone="no"?>
<!DOCTYPE svg PUBLIC "-//W3C//DTD SVG 1.1//EN" "//www.w3.org/Graphics/SVG/1.1/DTD/svg11.dtd" >
<svg xmlns="//www.w3.org/2000/svg" xmlns:xlink="//www.w3.org/1999/xlink" version="1.1">
<metadata></metadata>
<defs>
<font id="open_sanslight_italic" horiz-adv-x="1128" >
<font-face units-per-em="2048" ascent="1638" descent="-410" />
<missing-glyph horiz-adv-x="532" />
<glyph unicode="ff" horiz-adv-x="1155" d="M-131 -492q-48 0 -102 19v90q53 -16 100 -16q88 0 134 53t75 186l246 1166h-205l14 67l205 14l35 160q35 168 116.5 244t227.5 76q73 0 166 -31l-25 -80q-87 27 -147 27q-96 0 -153.5 -53.5t-84.5 -178.5l-35 -164h477l35 160q35 168 116.5 244t227.5 76q73 0 166 -31 l-24 -80q-87 27 -148 27q-97 0 -154.5 -54.5t-82.5 -177.5l-35 -164h248l-17 -81h-248l-252 -1190q-34 -165 -105.5 -236.5t-193.5 -71.5q-48 0 -102 19v90q53 -16 100 -16q88 0 134 53t75 186l244 1166h-477l-252 -1190q-33 -161 -104 -234.5t-195 -73.5z" />
<glyph unicode="&#xfb01;" horiz-adv-x="1040" d="M739 0h-98l231 1087h96zM915 1366q0 55 22 88t60 33q57 0 57 -72q0 -57 -22 -90t-57 -33q-29 0 -44.5 19.5t-15.5 54.5zM-148 -492q-48 0 -102 19v90q53 -16 100 -16q88 0 134 53t75 186l246 1166h-205l14 67l205 14l35 160q35 168 116.5 244t227.5 76q73 0 166 -31 l-25 -80q-87 27 -147 27q-96 0 -153.5 -53.5t-84.5 -178.5l-35 -164h248l-16 -81h-248l-252 -1190q-33 -161 -104 -234.5t-195 -73.5z" />
<glyph unicode="&#xfb02;" horiz-adv-x="1042" d="M737 0h-94l334 1556h94zM-148 -492q-48 0 -102 19v90q53 -16 100 -16q88 0 134 53t75 186l246 1166h-205l14 67l205 14l35 160q35 168 116.5 244t227.5 76q73 0 166 -31l-25 -80q-87 27 -147 27q-96 0 -153.5 -53.5t-84.5 -178.5l-35 -164h248l-16 -81h-248l-252 -1190 q-33 -161 -104 -234.5t-195 -73.5z" />
<glyph unicode="&#xfb03;" horiz-adv-x="1616" d="M-148 -492q-48 0 -102 19v90q53 -16 100 -16q88 0 134 53t75 186l246 1166h-205l14 67l205 14l35 160q35 168 116.5 244t227.5 76q73 0 166 -31l-25 -80q-87 27 -147 27q-96 0 -153.5 -53.5t-84.5 -178.5l-35 -164h477l35 160q35 168 116.5 244t227.5 76q73 0 166 -31 l-24 -80q-87 27 -148 27q-97 0 -154.5 -54.5t-82.5 -177.5l-35 -164h248l-17 -81h-248l-252 -1190q-34 -165 -105.5 -236.5t-193.5 -71.5q-48 0 -102 19v90q53 -16 100 -16q88 0 134 53t75 186l244 1166h-477l-252 -1190q-33 -161 -104 -234.5t-195 -73.5zM1315 0h-98 l231 1087h96zM1491 1366q0 55 22 88t60 33q57 0 57 -72q0 -57 -22 -90t-57 -33q-29 0 -44.5 19.5t-15.5 54.5z" />
<glyph unicode="&#xfb04;" horiz-adv-x="1626" d="M-148 -492q-48 0 -102 19v90q53 -16 100 -16q88 0 134 53t75 186l246 1166h-205l14 67l205 14l35 160q35 168 116.5 244t227.5 76q73 0 166 -31l-25 -80q-87 27 -147 27q-96 0 -153.5 -53.5t-84.5 -178.5l-35 -164h477l35 160q35 168 116.5 244t227.5 76q73 0 166 -31 l-24 -80q-87 27 -148 27q-97 0 -154.5 -54.5t-82.5 -177.5l-35 -164h248l-17 -81h-248l-252 -1190q-34 -165 -105.5 -236.5t-193.5 -71.5q-48 0 -102 19v90q53 -16 100 -16q88 0 134 53t75 186l244 1166h-477l-252 -1190q-33 -161 -104 -234.5t-195 -73.5zM1321 0h-94 l334 1556h94z" />
<glyph unicode="&#xd;" horiz-adv-x="1044" />
<glyph unicode=" "  horiz-adv-x="532" />
<glyph unicode="&#x09;" horiz-adv-x="532" />
<glyph unicode="&#xa0;" horiz-adv-x="532" />
<glyph unicode="!" horiz-adv-x="502" d="M248 377h-62l203 1085h119zM80 57q0 56 25 88.5t69 32.5q66 0 66 -72q0 -53 -25 -87.5t-68 -34.5q-67 0 -67 73z" />
<glyph unicode="&#x22;" horiz-adv-x="721" d="M455 1462l-146 -528h-61l80 528h127zM784 1462l-145 -528h-61l79 528h127z" />
<glyph unicode="#" horiz-adv-x="1323" d="M389 530l119 398h-297l8 80h311l134 454h90l-136 -454h365l135 454h86l-135 -454h285l-8 -80h-302l-118 -398h303l-8 -79h-320l-133 -451h-90l135 451h-360l-134 -451h-88l134 451h-283l8 79h299zM475 530h363l120 398h-362z" />
<glyph unicode="$" d="M928 467q0 -151 -110.5 -243t-297.5 -103l-53 -240h-82l51 240q-79 2 -158 18t-137 43v94q65 -34 153.5 -53.5t160.5 -19.5l110 512q-110 53 -153 91t-66.5 87.5t-23.5 116.5q0 155 105.5 250.5t272.5 99.5l41 192h80l-41 -192q149 -5 277 -68l-35 -78q-110 61 -256 70 l-109 -514q124 -60 172.5 -99.5t73.5 -88.5t25 -115zM537 203q142 7 223.5 74.5t81.5 183.5q0 76 -48 129.5t-157 97.5zM686 1284q-134 -9 -205 -80t-71 -186q0 -78 37 -128.5t137 -96.5z" />
<glyph unicode="%" horiz-adv-x="1556" d="M1458 1462l-1139 -1462h-106l1135 1462h110zM1520 612q0 -175 -50 -327t-136 -230t-197 -78q-112 0 -172 75.5t-60 223.5q0 160 52 312t138 229.5t193 77.5q121 0 176.5 -71.5t55.5 -211.5zM1284 821q-80 0 -146.5 -72.5t-106.5 -202.5t-40 -263q0 -116 41 -174t113 -58 q130 0 209.5 166.5t79.5 386.5q0 109 -36 163t-114 54zM760 1198q0 -175 -50 -327t-136 -230t-197 -78q-112 0 -172 75.5t-60 223.5q0 160 52 312t138 229.5t193 77.5q232 0 232 -283zM524 1407q-79 0 -145 -71.5t-107 -203t-41 -264.5q0 -115 41 -173t113 -58 q84 0 148.5 72t102.5 204t38 277q0 109 -36 163t-114 54z" />
<glyph unicode="&#x26;" horiz-adv-x="1331" d="M748 1395q-125 0 -194 -68t-69 -192q0 -132 109 -281q203 89 279.5 163.5t76.5 182.5q0 91 -56.5 143t-145.5 52zM465 63q108 0 211.5 42.5t222.5 146.5l-352 493q-164 -79 -232 -134.5t-103.5 -124t-35.5 -158.5q0 -119 78 -192t211 -73zM78 324q0 162 99 277.5 t325 215.5l-41 67q-78 128 -78 251q0 157 101 253.5t264 96.5q145 0 227 -76.5t82 -206.5q0 -85 -41 -154t-121 -128t-256 -138l330 -463q73 75 135.5 176.5t91.5 186.5h111q-102 -247 -285 -436l184 -246h-123l-131 184q-121 -108 -242 -156t-266 -48q-167 0 -266.5 94 t-99.5 250z" />
<glyph unicode="'" horiz-adv-x="403" d="M461 1462l-146 -528h-61l80 528h127z" />
<glyph unicode="(" horiz-adv-x="526" d="M104 270q0 343 122 633t382 559h105q-259 -276 -384.5 -568t-125.5 -618q0 -317 127 -600h-80q-146 262 -146 594z" />
<glyph unicode=")" horiz-adv-x="526" d="M453 868q0 -345 -123.5 -636t-380.5 -556h-105q257 274 383.5 566.5t126.5 619.5q0 148 -28.5 294t-98.5 306h80q146 -262 146 -594z" />
<glyph unicode="*" horiz-adv-x="1137" d="M834 1540l-109 -405l438 8l-8 -107l-416 29l181 -401l-115 -37l-135 417l-285 -348l-78 78l318 318l-392 125l39 102l394 -168l47 408z" />
<glyph unicode="+" d="M563 672h-401v100h401v404h101v-404h401v-100h-401v-400h-101v400z" />
<glyph unicode="," horiz-adv-x="451" d="M250 238l8 -23q-34 -92 -114 -233.5t-160 -245.5h-74q79 132 141 271t88 231h111z" />
<glyph unicode="-" horiz-adv-x="629" d="M82 502l18 90h457l-16 -90h-459z" />
<glyph unicode="." horiz-adv-x="485" d="M82 55q0 56 25 88.5t69 32.5q66 0 66 -72q0 -53 -25 -87.5t-67 -34.5q-68 0 -68 73z" />
<glyph unicode="/" horiz-adv-x="641" d="M827 1462l-817 -1462h-110l815 1462h112z" />
<glyph unicode="0" d="M1075 1016q0 -201 -41 -405t-116.5 -346t-183.5 -213.5t-242 -71.5q-176 0 -264.5 126.5t-88.5 387.5q0 186 44.5 381.5t124 334t187 207t240.5 68.5q340 0 340 -469zM723 1397q-134 0 -241.5 -113t-173.5 -329t-66 -451q0 -222 62.5 -329t197.5 -107q139 0 244 112 t166 337t61 489q0 199 -59.5 295t-190.5 96z" />
<glyph unicode="1" d="M537 0h-105l225 1055q19 92 74 293q-42 -36 -75.5 -61t-249.5 -161l-52 78l406 258h90z" />
<glyph unicode="2" d="M909 0h-870l22 104l449 402q198 177 284 276.5t126.5 186.5t40.5 180q0 112 -66 178t-197 66q-176 0 -333 -129l-54 73q180 146 394 146q173 0 268.5 -85t95.5 -237q0 -110 -43.5 -208.5t-141.5 -211.5t-311 -303l-383 -338v-4h736z" />
<glyph unicode="3" d="M1049 1174q0 -162 -106 -275t-286 -143v-4q117 -24 185.5 -115.5t68.5 -226.5q0 -134 -64 -233t-179.5 -148t-274.5 -49q-96 0 -184.5 20.5t-153.5 52.5v101q172 -86 344 -86q197 0 303.5 89.5t106.5 252.5q0 145 -89 223t-247 78h-117l21 96h110q209 0 333 95.5 t124 258.5q0 114 -63.5 175t-188.5 61q-167 0 -344 -131l-49 75q84 67 188 104.5t218 37.5q161 0 252.5 -82.5t91.5 -226.5z" />
<glyph unicode="4" d="M1071 371h-264l-80 -371h-96l80 371h-688l20 96l881 1010h118l-215 -1018h265zM729 459q79 369 119 558.5t86 354.5h-4q-66 -91 -129 -166l-651 -747h579z" />
<glyph unicode="5" d="M582 879q188 0 292.5 -102t104.5 -279q0 -237 -148 -377.5t-407 -140.5q-84 0 -177.5 20t-158.5 51v107q170 -90 340 -90q208 0 328.5 114.5t120.5 313.5q0 140 -85 219.5t-225 79.5q-133 0 -243 -41l-66 49l193 659h624l-18 -96h-541l-149 -516q98 29 215 29z" />
<glyph unicode="6" d="M170 428q0 283 105 544.5t269.5 385t383.5 123.5q123 0 182 -21l-18 -90q-86 23 -170 23q-233 0 -393.5 -174t-233.5 -502h8q68 94 164 143t211 49q161 0 250.5 -100.5t89.5 -282.5q0 -156 -60 -281t-171 -195t-257 -70q-171 0 -265.5 119t-94.5 329zM543 68 q112 0 196.5 58.5t130 162t45.5 229.5q0 146 -67 224.5t-195 78.5q-81 0 -154 -31.5t-129 -87t-78 -115t-22 -173.5q0 -164 72.5 -255t200.5 -91z" />
<glyph unicode="7" d="M244 0l796 1366h-766l23 96h858l-20 -110l-779 -1352h-112z" />
<glyph unicode="8" d="M737 1485q163 0 258 -85t95 -229q0 -138 -84 -234.5t-285 -172.5q130 -78 190 -170.5t60 -208.5t-58 -208t-165.5 -144.5t-260.5 -52.5q-178 0 -283.5 92.5t-105.5 253.5q0 159 100.5 268.5t321.5 187.5q-100 72 -144 152t-44 180q0 159 114 265t291 106zM610 733 q-218 -73 -313.5 -167.5t-95.5 -225.5q0 -136 77.5 -206.5t219.5 -70.5q168 0 270 91t102 233q0 104 -62 189t-198 157zM727 1399q-130 0 -214.5 -82t-84.5 -203q0 -91 41.5 -159t157.5 -142q192 62 279 144t87 206q0 109 -70.5 172.5t-195.5 63.5z" />
<glyph unicode="9" d="M1059 1032q0 -288 -101.5 -548t-263.5 -382t-393 -122q-114 0 -186 22v90q87 -29 192 -29q474 0 627 674h-8q-140 -192 -367 -192q-162 0 -255 105t-93 284q0 155 59.5 281t170.5 196t257 70q174 0 267.5 -115.5t93.5 -333.5zM686 1393q-112 0 -197.5 -58.5 t-130.5 -162.5t-45 -230q0 -145 67.5 -225t192.5 -80q83 0 157.5 32.5t129 87.5t76.5 114t22 176q0 166 -71 256t-201 90z" />
<glyph unicode=":" horiz-adv-x="485" d="M260 989q0 57 25.5 89t68.5 32q66 0 66 -72q0 -55 -25 -89t-67 -34q-68 0 -68 74zM102 55q0 56 25.5 88.5t69.5 32.5q65 0 65 -72q0 -55 -25.5 -88.5t-66.5 -33.5q-68 0 -68 73z" />
<glyph unicode=";" horiz-adv-x="485" d="M287 238l8 -23q-35 -96 -118.5 -242t-156.5 -237h-73q79 132 141 271t88 231h111zM266 989q0 57 25.5 89t68.5 32q66 0 66 -72q0 -55 -25 -89t-67 -34q-68 0 -68 74z" />
<glyph unicode="&#x3c;" d="M1051 262l-914 414v74l914 471v-103l-801 -399l801 -350v-107z" />
<glyph unicode="=" d="M168 885v100h903v-100h-903zM168 461v98h903v-98h-903z" />
<glyph unicode="&#x3e;" d="M170 369l801 350l-801 399v103l915 -471v-74l-915 -414v107z" />
<glyph unicode="?" horiz-adv-x="799" d="M242 362l6 29q29 132 82 206.5t157 147.5q118 84 175 145.5t86.5 127.5t29.5 141q0 108 -67.5 170t-182.5 62q-139 0 -307 -101l-39 86q85 49 171.5 78t187.5 29q159 0 250.5 -84.5t91.5 -229.5q0 -127 -66 -234t-231 -226q-85 -61 -132.5 -108.5t-73 -95t-46.5 -143.5 h-92zM170 59q0 56 25 88.5t69 32.5q66 0 66 -71q0 -54 -24.5 -88.5t-67.5 -34.5q-68 0 -68 73z" />
<glyph unicode="@" horiz-adv-x="1724" d="M1688 858q0 -179 -56 -323.5t-154.5 -227t-211.5 -82.5q-98 0 -154.5 55t-56.5 144h-4q-54 -97 -132.5 -148t-168.5 -51q-112 0 -178 73t-66 202q0 156 63 283t178 198.5t261 71.5q122 0 252 -52l-84 -315q-39 -140 -39 -221q0 -71 34.5 -111.5t100.5 -40.5 q86 0 160 73.5t117.5 198t43.5 251.5q0 156 -65 277t-187 188t-292 67q-235 0 -424.5 -108.5t-295.5 -304t-106 -439.5q0 -288 155 -449t435 -161q207 0 420 82v-90q-210 -82 -428 -82q-203 0 -357.5 82.5t-238.5 239t-84 370.5q0 276 121.5 493.5t337 337t473.5 119.5 q189 0 330.5 -72.5t221 -213t79.5 -314.5zM1008 969q-113 0 -204.5 -59t-142.5 -165.5t-51 -238.5q0 -92 40.5 -142.5t113.5 -50.5q101 0 180.5 89t124.5 255l78 289q-66 23 -139 23z" />
<glyph unicode="A" horiz-adv-x="1059" d="M805 520h-512l-287 -520h-117l822 1468h67l201 -1468h-105zM793 612l-39 291q-31 242 -39 402q-30 -63 -64.5 -130t-306.5 -563h449z" />
<glyph unicode="B" horiz-adv-x="1202" d="M412 1462h379q190 0 290.5 -84t100.5 -241q0 -153 -90 -249t-254 -124v-4q125 -31 188.5 -113.5t63.5 -204.5q0 -205 -140.5 -323.5t-390.5 -118.5h-457zM377 811h278q206 0 313 81t107 238q0 119 -78 180.5t-229 61.5h-272zM358 721l-135 -631h342q201 0 309.5 87.5 t108.5 256.5q0 145 -90 216t-275 71h-260z" />
<glyph unicode="C" horiz-adv-x="1169" d="M961 1389q-197 0 -351.5 -104.5t-245 -304.5t-90.5 -441q0 -225 110.5 -346t317.5 -121q140 0 304 51v-94q-156 -49 -316 -49q-252 0 -386 145t-134 410q0 266 104.5 488t284.5 341t402 119q177 0 307 -68l-45 -90q-55 30 -124.5 47t-137.5 17z" />
<glyph unicode="D" horiz-adv-x="1350" d="M1288 879q0 -253 -109.5 -461.5t-300.5 -313t-446 -104.5h-330l310 1462h305q282 0 426.5 -147.5t144.5 -435.5zM430 90q226 0 394.5 94.5t261 275.5t92.5 412q0 498 -476 498h-206l-275 -1280h209z" />
<glyph unicode="E" horiz-adv-x="1067" d="M829 0h-727l310 1462h727l-21 -94h-624l-117 -553h590l-21 -94h-588l-135 -627h627z" />
<glyph unicode="F" horiz-adv-x="981" d="M205 0h-103l310 1462h708l-20 -94h-604l-134 -620h570l-21 -95h-569z" />
<glyph unicode="G" horiz-adv-x="1374" d="M856 735h406l-150 -682q-211 -73 -405 -73q-257 0 -397 146t-140 421q0 265 105 483.5t283.5 335.5t395.5 117q113 0 203 -19t184 -59l-38 -94q-110 46 -189.5 62t-167.5 16q-184 0 -339 -107.5t-244 -301.5t-89 -433q0 -229 114.5 -352t326.5 -123q155 0 309 47l117 526 h-303z" />
<glyph unicode="H" horiz-adv-x="1366" d="M1063 0h-100l151 719h-760l-149 -719h-103l310 1462h102l-139 -649h760l137 649h100z" />
<glyph unicode="I" horiz-adv-x="504" d="M102 0l310 1462h98l-309 -1462h-99z" />
<glyph unicode="J" horiz-adv-x="477" d="M-180 -360q-48 0 -88 8t-56 16l11 92q57 -20 137 -20q213 0 262 241l309 1485h105l-314 -1491q-35 -170 -125 -250.5t-241 -80.5z" />
<glyph unicode="K" horiz-adv-x="1122" d="M979 0h-111l-342 788l-190 -153l-131 -635h-103l310 1462h102l-158 -723l133 121l680 602h138l-699 -610z" />
<glyph unicode="L" horiz-adv-x="938" d="M102 0l310 1462h102l-289 -1366h621l-23 -96h-721z" />
<glyph unicode="M" horiz-adv-x="1669" d="M772 205l733 1257h150l-301 -1462h-101l191 901q79 369 100 447h-6l-780 -1348h-51l-222 1348h-6q-20 -154 -78 -426l-196 -922h-96l309 1462h143l205 -1257h6z" />
<glyph unicode="N" horiz-adv-x="1372" d="M1069 0h-86l-516 1284h-8q-23 -149 -48 -273t-214 -1011h-95l310 1462h80l522 -1294h8q23 176 74 416l188 878h94z" />
<glyph unicode="O" horiz-adv-x="1464" d="M1403 911q0 -255 -94 -481.5t-252 -338t-365 -111.5q-250 0 -385 149t-135 430q0 262 93 477.5t255 331t373 115.5q247 0 378.5 -148.5t131.5 -423.5zM879 1389q-174 0 -308.5 -101t-214.5 -298t-80 -417q0 -245 109.5 -373t319.5 -128q169 0 300 98.5t210 300t79 430.5 q0 240 -104.5 364t-310.5 124z" />
<glyph unicode="P" horiz-adv-x="1145" d="M1145 1102q0 -500 -610 -500h-201l-129 -602h-103l310 1462h315q202 0 310 -92.5t108 -267.5zM350 694h191q252 0 373.5 96.5t121.5 305.5q0 274 -329 274h-211z" />
<glyph unicode="Q" horiz-adv-x="1464" d="M1403 911q0 -216 -70 -418t-186.5 -324t-274.5 -167l267 -350h-142l-231 332l-74 -4q-250 0 -385 149t-135 430q0 262 93 477.5t255 331t373 115.5q247 0 378.5 -148.5t131.5 -423.5zM879 1389q-174 0 -308.5 -101t-214.5 -298t-80 -417q0 -245 109.5 -373t319.5 -128 q169 0 300 98.5t210 300t79 430.5q0 240 -104.5 364t-310.5 124z" />
<glyph unicode="R" horiz-adv-x="1145" d="M336 633l-131 -633h-103l310 1462h303q430 0 430 -360q0 -182 -103.5 -303t-281.5 -152q201 -591 221 -647h-111l-211 633h-323zM358 725h252q208 0 317 95.5t109 281.5q0 268 -329 268h-211z" />
<glyph unicode="S" horiz-adv-x="1020" d="M895 403q0 -126 -65.5 -224.5t-179.5 -148.5t-269 -50q-88 0 -172.5 17t-171.5 58v109q163 -92 348 -92q188 0 295.5 86.5t107.5 232.5q0 61 -17 104.5t-52.5 78.5t-91 68t-131.5 75q-150 76 -209.5 164t-59.5 206t59 207.5t165 139t237 49.5q99 0 180 -17.5t168 -60.5 l-32 -94q-66 40 -151.5 63t-164.5 23q-163 0 -259.5 -82.5t-96.5 -218.5q0 -103 49 -170t182 -133q154 -79 213.5 -130t89 -113t29.5 -147z" />
<glyph unicode="T" horiz-adv-x="985" d="M438 0h-102l289 1368h-432l20 94h973l-19 -94h-440z" />
<glyph unicode="U" horiz-adv-x="1370" d="M1395 1462l-207 -977q-58 -270 -197 -387.5t-375 -117.5q-440 0 -440 401q0 83 27 201l186 880h103l-193 -899q-20 -89 -20 -184q0 -309 342 -309q195 0 307.5 96.5t158.5 318.5l207 977h101z" />
<glyph unicode="V" horiz-adv-x="1079" d="M457 147q51 111 124 247l572 1068h117l-799 -1462h-88l-182 1462h100l117 -950q26 -217 35 -365h4z" />
<glyph unicode="W" horiz-adv-x="1702" d="M1018 1341q-27 -76 -62 -153.5t-563 -1187.5h-82l-73 1462h100l47 -1031l4 -165l-2 -86h6q85 226 170 398l434 884h105l61 -878q19 -266 19 -410h6q30 86 61.5 163t493.5 1125h108q-169 -365 -330.5 -731t-328.5 -731h-78l-78 1075q-11 142 -11 219l1 47h-8z" />
<glyph unicode="X" horiz-adv-x="971" d="M879 0h-107l-254 678l-526 -678h-127l608 766l-272 696h106l240 -626l483 626h119l-555 -719z" />
<glyph unicode="Y" horiz-adv-x="965" d="M494 645l544 817h117l-631 -932l-108 -530h-105l119 545l-237 917h100z" />
<glyph unicode="Z" d="M913 0h-925l22 92l1069 1276h-764l23 94h887l-19 -88l-1069 -1280h799z" />
<glyph unicode="[" horiz-adv-x="537" d="M369 -324h-426l376 1786h429l-19 -90h-330l-340 -1605h330z" />
<glyph unicode="\" horiz-adv-x="641" d="M295 1462l242 -1462h-82l-246 1462h86z" />
<glyph unicode="]" horiz-adv-x="537" d="M203 1462h426l-377 -1786h-428l18 91h330l340 1605h-330z" />
<glyph unicode="^" horiz-adv-x="1047" d="M70 569l587 906h91l260 -906h-105l-217 809l-500 -809h-116z" />
<glyph unicode="_" horiz-adv-x="801" d="M625 -291h-807l18 86h807z" />
<glyph unicode="`" horiz-adv-x="1135" d="M766 1241h-66q-50 52 -114 144.5t-99 162.5v21h115q46 -129 164 -303v-25z" />
<glyph unicode="a" horiz-adv-x="1133" d="M655 1104q232 0 279 -219h6l59 202h80l-229 -1087h-82l45 274h-6q-84 -142 -187 -218t-237 -76q-281 0 -281 374q0 197 75 376t200.5 276.5t277.5 97.5zM406 70q89 0 177.5 62t159 166t107.5 230t37 213q0 79 -26 141.5t-77 99t-127 36.5q-124 0 -224 -82t-164 -245.5 t-64 -325.5q0 -152 50 -223.5t151 -71.5z" />
<glyph unicode="b" horiz-adv-x="1151" d="M500 -16q-113 0 -186 59t-97 166h-6l-55 -209h-80l327 1556h95q-131 -628 -162 -751h6q93 156 199 229.5t231 73.5q281 0 281 -375q0 -203 -76 -380t-201 -273t-276 -96zM750 1018q-91 0 -180 -61.5t-160.5 -169.5t-106.5 -235t-35 -206q0 -129 64 -202.5t166 -73.5 q124 0 224 83t164 245t64 325q0 152 -49 223.5t-151 71.5z" />
<glyph unicode="c" horiz-adv-x="887" d="M477 -20q-174 0 -274.5 110.5t-100.5 306.5q0 193 73.5 361.5t198.5 257t290 88.5q134 0 241 -43l-28 -90q-107 47 -218 47q-129 0 -232.5 -77t-162.5 -222t-59 -320q0 -158 73.5 -243.5t208.5 -85.5q71 0 131.5 13t131.5 46v-92q-116 -57 -273 -57z" />
<glyph unicode="d" horiz-adv-x="1133" d="M655 1104q230 0 279 -219h4q12 66 143 671h99l-330 -1556h-82l45 274h-6q-173 -294 -424 -294q-281 0 -281 374q0 193 71.5 370t197.5 278.5t284 101.5zM406 70q89 0 178.5 62.5t160 168t106.5 231t36 209.5q0 126 -61.5 201.5t-168.5 75.5q-124 0 -224 -83t-164 -242.5 t-64 -327.5q0 -295 201 -295z" />
<glyph unicode="e" horiz-adv-x="928" d="M469 -20q-173 0 -270 109.5t-97 305.5q0 181 71 347t195.5 264t274.5 98q114 0 182 -61t68 -166q0 -181 -163.5 -276t-485.5 -95h-33q-6 -44 -6 -98q0 -165 74 -251.5t213 -86.5q132 0 276 73v-94q-140 -69 -299 -69zM631 1018q-131 0 -243.5 -115.5t-162.5 -308.5h49 q517 0 517 270q0 67 -43.5 110.5t-116.5 43.5z" />
<glyph unicode="f" horiz-adv-x="578" d="M-131 -492q-48 0 -102 19v90q53 -16 100 -16q88 0 134 53t75 186l246 1166h-205l14 67l205 14l35 160q35 168 116.5 244t227.5 76q73 0 166 -31l-25 -80q-87 27 -147 27q-96 0 -153.5 -53.5t-84.5 -178.5l-35 -164h248l-16 -81h-248l-252 -1190q-33 -161 -104 -234.5 t-195 -73.5z" />
<glyph unicode="g" horiz-adv-x="1040" d="M1100 1087l-17 -79l-243 -11q26 -28 43.5 -84t17.5 -114q0 -109 -54.5 -206.5t-148 -145.5t-213.5 -48q-63 0 -77 9q-80 -33 -124 -73t-44 -81t31.5 -64.5t113.5 -31.5l121 -11q346 -31 346 -264q0 -112 -65 -197.5t-187 -131.5t-291 -46q-186 0 -291.5 72t-105.5 203 q0 236 309 334q-78 42 -78 123q0 123 191 202q-71 36 -110.5 105.5t-39.5 157.5q0 111 53.5 204t148 146t206.5 53q69 0 147 -21h361zM14 -207q0 -101 81 -150t224 -49q203 0 317 74.5t114 204.5q0 85 -62.5 130.5t-218.5 57.5l-160 15q-157 -45 -226 -114.5t-69 -168.5z M285 711q0 -112 58.5 -170t164.5 -58q88 0 154 37t102.5 114t36.5 169q0 104 -56 161.5t-157 57.5q-93 0 -161 -43t-105 -116t-37 -152z" />
<glyph unicode="h" horiz-adv-x="1143" d="M764 0l149 692q21 92 21 156q0 80 -43.5 125t-134.5 45q-112 0 -210.5 -67t-166 -188t-103.5 -286l-102 -477h-98l332 1556h96l-86 -411q-44 -200 -66 -279h6q78 113 186.5 175.5t229.5 62.5q124 0 192 -65t68 -183q0 -70 -24 -182l-148 -674h-98z" />
<glyph unicode="i" horiz-adv-x="475" d="M174 0h-98l231 1087h96zM350 1366q0 55 22 88t60 33q57 0 57 -72q0 -57 -22 -90t-57 -33q-29 0 -44.5 19.5t-15.5 54.5z" />
<glyph unicode="j" horiz-adv-x="475" d="M-166 -492q-62 0 -113 19v92q47 -22 113 -22q82 0 128.5 51.5t72.5 177.5l266 1261h96l-268 -1271q-35 -165 -106.5 -236.5t-188.5 -71.5zM350 1366q0 55 22 88t60 33q57 0 57 -72q0 -57 -22 -90t-57 -33q-29 0 -44.5 19.5t-15.5 54.5z" />
<glyph unicode="k" horiz-adv-x="944" d="M270 477l609 610h125l-474 -469l297 -618h-106l-264 559l-205 -188l-80 -371h-96l330 1556h96l-166 -780l-70 -299h4z" />
<glyph unicode="l" horiz-adv-x="475" d="M170 0h-94l334 1556h94z" />
<glyph unicode="m" horiz-adv-x="1751" d="M711 0l147 674q25 125 25 162q0 182 -154 182q-106 0 -200 -67.5t-159 -188.5t-100 -287l-100 -475h-98l231 1087h80l-33 -210h6q80 113 181.5 170t212.5 57q106 0 163 -67t60 -195h6q77 129 181 195.5t222 66.5q117 0 182.5 -61.5t65.5 -176.5q0 -29 -2.5 -56.5 t-19.5 -119.5l-152 -690h-100l149 680q25 120 25 176q0 77 -43 119.5t-119 42.5q-157 0 -277.5 -137.5t-168.5 -362.5l-109 -518h-102z" />
<glyph unicode="n" horiz-adv-x="1143" d="M764 0l149 692q21 92 21 156q0 80 -43.5 125t-134.5 45q-112 0 -210.5 -67t-166 -187.5t-103.5 -286.5l-102 -477h-98l231 1087h82l-37 -221h6q164 238 416 238q130 0 195 -64t65 -184q0 -70 -24 -182l-148 -674h-98z" />
<glyph unicode="o" horiz-adv-x="1124" d="M649 1108q180 0 278.5 -108.5t98.5 -299.5q0 -197 -71.5 -368.5t-195.5 -261.5t-286 -90q-184 0 -279.5 109.5t-95.5 313.5q0 191 73 358t197 257t281 90zM641 1022q-124 0 -223 -78.5t-158 -225t-59 -310.5q0 -342 282 -342q127 0 225.5 77.5t157 228t58.5 330.5 q0 154 -73 237t-210 83z" />
<glyph unicode="p" horiz-adv-x="1149" d="M498 -16q-230 0 -279 219h-4q-13 -72 -149 -695h-99l336 1579h82l-45 -274h6q91 153 195.5 224t228.5 71q135 0 208 -92.5t73 -282.5q0 -195 -72 -371t-197.5 -277t-283.5 -101zM748 1018q-87 0 -174 -58.5t-161.5 -167.5t-110.5 -237.5t-36 -208.5q0 -125 61.5 -200.5 t168.5 -75.5q124 0 225 84t164 243.5t63 325.5q0 295 -200 295z" />
<glyph unicode="q" horiz-adv-x="1157" d="M651 1104q109 0 183.5 -58t99.5 -167h6l55 208h80l-327 -1556h-95l98 470l64 282h-6q-93 -156 -199 -229.5t-231 -73.5q-281 0 -281 374q0 201 75.5 379t200.5 274.5t277 96.5zM401 70q92 0 182 62.5t160.5 171.5t105 236.5t34.5 200.5q0 130 -63.5 203.5t-166.5 73.5 q-124 0 -224 -83t-164 -245t-64 -325q0 -143 45.5 -219t154.5 -76z" />
<glyph unicode="r" horiz-adv-x="752" d="M713 1106q69 0 123 -14l-21 -93q-47 15 -113 15q-94 0 -179 -64t-153 -192t-100 -277l-100 -481h-98l231 1087h80l-29 -204h6q73 94 123 135.5t106.5 64.5t123.5 23z" />
<glyph unicode="s" horiz-adv-x="827" d="M713 295q0 -144 -103 -229.5t-280 -85.5q-173 0 -305 75v107q74 -46 153 -71t148 -25q138 0 211 57.5t73 163.5q0 42 -15.5 74t-50 61.5t-132.5 85.5q-148 80 -200 145.5t-52 159.5q0 128 98.5 209.5t259.5 81.5q75 0 158.5 -17.5t140.5 -46.5l-35 -88q-136 64 -264 64 q-116 0 -186 -53t-70 -138q0 -55 17 -88t60.5 -68.5t119.5 -76.5q114 -63 161.5 -103.5t70 -86.5t22.5 -107z" />
<glyph unicode="t" horiz-adv-x="616" d="M694 1087l-18 -81h-283l-135 -635q-22 -99 -22 -164q0 -139 126 -139q68 0 152 26v-86q-101 -28 -170 -28q-99 0 -153 54.5t-54 158.5q0 73 29 206l129 607h-182l14 67l184 17l97 253h55l-55 -256h286z" />
<glyph unicode="u" horiz-adv-x="1143" d="M381 1087l-152 -698q-22 -106 -22 -158q0 -74 47.5 -117.5t138.5 -43.5q110 0 207.5 65.5t164 187t99.5 279.5l105 485h98l-231 -1087h-80l28 205h-6q-167 -221 -403 -221q-131 0 -198.5 62t-67.5 181q0 60 22 170l150 690h100z" />
<glyph unicode="v" horiz-adv-x="895" d="M276 0l-172 1087h101l108 -735q26 -165 33 -254h6q51 115 129 256l406 733h102l-600 -1087h-113z" />
<glyph unicode="w" horiz-adv-x="1393" d="M838 0l-60 686q-14 224 -14 266h-6q-34 -92 -144 -290l-356 -662h-117l-20 1087h92l13 -821l-3 -157h6q61 134 150 297l373 681h77l64 -681q14 -147 14 -297h6l24 61l101 236l320 681h96l-508 -1087h-108z" />
<glyph unicode="x" horiz-adv-x="922" d="M442 483l-393 -483h-121l471 559l-245 528h100l207 -462l373 462h120l-448 -534l258 -553h-98z" />
<glyph unicode="y" horiz-adv-x="920" d="M123 1087h100l82 -548q51 -351 55 -449h11q43 105 186 367l348 630h103l-713 -1290q-72 -127 -122.5 -178t-114 -81t-146.5 -30q-68 0 -129 21v92q71 -27 137 -27q80 0 147 49.5t130 164.5t100 184z" />
<glyph unicode="z" horiz-adv-x="887" d="M700 0h-729l15 72l776 932h-543l17 83h659l-18 -83l-762 -920h602z" />
<glyph unicode="{" horiz-adv-x="709" d="M424 -324q-256 0 -256 199q0 45 16 115l56 252q18 90 18 127q0 159 -199 159l21 78q126 0 191 49t89 158l89 393q30 135 106 195.5t215 60.5h29l-17 -86q-86 -2 -129 -20.5t-69.5 -61.5t-44.5 -120l-74 -338q-30 -134 -91.5 -194.5t-164.5 -78.5v-4q68 -18 105.5 -68.5 t37.5 -121.5q0 -52 -24 -164l-47 -225q-13 -58 -13 -101q0 -61 37.5 -89t138.5 -28v-86h-20z" />
<glyph unicode="|" d="M584 1561h100v-2071h-100v2071z" />
<glyph unicode="}" horiz-adv-x="709" d="M332 1462q131 0 189.5 -51t58.5 -147q0 -41 -17 -115l-55 -252q-19 -95 -19 -127q0 -77 49.5 -118.5t149.5 -41.5l-20 -78q-125 0 -191 -48.5t-90 -157.5l-88 -394q-32 -139 -108.5 -197.5t-213.5 -58.5h-18v86q96 2 138 21t68.5 61t43.5 121l74 338q27 126 87.5 189.5 t168.5 82.5v5q-75 20 -109.5 72.5t-34.5 117.5q0 55 18 131l54 258q12 61 12 101q0 44 -18 69t-54 36t-116 11l20 86h21z" />
<glyph unicode="~" d="M350 745q-49 0 -108 -30.5t-115 -89.5v94q108 110 233 110q61 0 115 -13.5t156 -57.5q126 -58 219 -58q54 0 107.5 29t117.5 96v-96q-111 -113 -233 -113q-117 0 -271 72q-62 29 -112.5 43t-108.5 14z" />
<glyph unicode="&#xa1;" horiz-adv-x="502" d="M264 711h62l-203 -1086h-119zM432 1030q0 -56 -25 -88.5t-69 -32.5q-66 0 -66 72q0 55 25 89t68 34q67 0 67 -74z" />
<glyph unicode="&#xa2;" d="M578 -20h-93l45 215q-132 25 -206 132.5t-74 272.5q0 184 63.5 341t178 253t256.5 111l36 178h90l-38 -176q116 -4 217 -43l-29 -90q-107 47 -217 47q-130 0 -233 -76t-162.5 -221t-59.5 -322q0 -164 74.5 -247t208.5 -83q127 0 264 60v-92q-118 -58 -281 -58z" />
<glyph unicode="&#xa3;" d="M879 1479q170 0 313 -78l-39 -84l-54 26q-108 50 -231 50q-134 0 -220.5 -74.5t-117.5 -220.5l-73 -340h409l-18 -82h-408l-57 -268q-50 -225 -188 -314h759l-20 -94h-938l16 84q93 11 165.5 95.5t107.5 236.5l57 260h-199l17 82h198l76 350q41 187 155 279t290 92z" />
<glyph unicode="&#xa4;" d="M262 723q0 118 74 225l-129 129l63 64l127 -129q105 78 230 78q118 0 223 -78l131 129l61 -62l-129 -129q78 -106 78 -227q0 -135 -78 -227l129 -127l-61 -62l-131 127q-104 -76 -223 -76q-126 0 -228 80l-129 -129l-61 62l127 127q-74 98 -74 225zM350 723 q0 -116 80 -196.5t197 -80.5t198.5 81t81.5 196q0 75 -36.5 140t-102.5 104t-141 39q-114 0 -195.5 -82t-81.5 -201z" />
<glyph unicode="&#xa5;" d="M584 645l544 817h117l-559 -823h266l-16 -76h-315l-39 -190h317l-18 -84h-316l-59 -289h-105l64 289h-299l18 84h299l41 190h-301l17 76h258l-215 823h100z" />
<glyph unicode="&#xa6;" d="M578 1561h100v-756h-100v756zM578 246h100v-756h-100v756z" />
<glyph unicode="&#xa7;" horiz-adv-x="995" d="M211 778q0 101 69.5 182t198.5 130q-64 31 -103.5 85.5t-39.5 120.5q0 74 46 134.5t132.5 94.5t202.5 34q163 0 289 -58l-31 -80q-138 54 -264 54q-124 0 -202.5 -46.5t-78.5 -123.5q0 -59 46 -104.5t183 -106.5q112 -52 158.5 -89.5t71 -85t24.5 -110.5 q0 -197 -249 -317q122 -64 122 -197q0 -86 -48 -153.5t-139.5 -105.5t-221.5 -38q-157 0 -275 53v99q47 -27 126 -46.5t153 -19.5q149 0 228 52.5t79 150.5q0 62 -42.5 106t-166.5 96q-155 65 -211.5 130t-56.5 159zM559 1038q-119 -30 -187.5 -97.5t-68.5 -154.5 q0 -57 24.5 -96.5t81 -73t187.5 -81.5q103 49 162 113.5t59 156.5q0 72 -57.5 126t-200.5 107z" />
<glyph unicode="&#xa8;" horiz-adv-x="1135" d="M836 1366q0 49 20.5 78t56.5 29q54 0 54 -64q0 -48 -21 -77t-55 -29q-55 0 -55 63zM492 1366q0 49 20.5 78t56.5 29q54 0 54 -64q0 -48 -21 -77t-55 -29q-55 0 -55 63z" />
<glyph unicode="&#xa9;" horiz-adv-x="1704" d="M944 1092q-142 0 -222.5 -94.5t-80.5 -264.5q0 -186 74.5 -275t220.5 -89q85 0 199 43v-88q-104 -45 -209 -45q-187 0 -288 116t-101 330q0 207 110 332t297 125q119 0 227 -52l-36 -83q-99 45 -191 45zM147 731q0 200 100 375t275 276t377 101q200 0 375 -100t276 -275 t101 -377q0 -197 -97 -370t-272 -277t-383 -104q-207 0 -382 103.5t-272.5 276.5t-97.5 371zM240 731q0 -178 88.5 -329.5t240.5 -240.5t330 -89q174 0 325 85.5t243 239t92 334.5q0 178 -89 330t-240.5 241t-330.5 89q-182 0 -335 -92t-238.5 -243t-85.5 -325z" />
<glyph unicode="&#xaa;" horiz-adv-x="643" d="M487 1485q55 0 97.5 -29t66.5 -86h6l35 103h66l-137 -650h-72l22 125h-4q-96 -137 -223 -137q-80 0 -127 56.5t-47 164.5q0 189 90.5 321t226.5 132zM369 885q66 0 133.5 75.5t97.5 184.5q16 51 16 123q0 58 -36 100.5t-93 42.5q-94 0 -161.5 -111.5t-67.5 -271.5 q0 -143 111 -143z" />
<glyph unicode="&#xab;" horiz-adv-x="860" d="M426 932l57 -49l-317 -336l213 -385l-64 -39l-254 418l2 26zM786 932l58 -49l-314 -336l209 -385l-63 -39l-254 418l2 26z" />
<glyph unicode="&#xac;" d="M1028 772v-500h-100v400h-803v100h903z" />
<glyph unicode="&#xad;" horiz-adv-x="629" d="M77 502l18 90h457l-16 -90h-459z" />
<glyph unicode="&#xae;" horiz-adv-x="1704" d="M758 731h112q93 0 144 46.5t51 135.5q0 172 -197 172h-110v-354zM1169 918q0 -80 -39.5 -141t-109.5 -93l237 -393h-120l-211 360h-168v-360h-101v880h211q143 0 222 -62t79 -191zM150 731q0 207 103.5 382t276.5 272.5t371 97.5q200 0 375 -100t276 -275t101 -377 q0 -197 -97 -370t-272 -277t-383 -104q-204 0 -376.5 100.5t-273.5 273t-101 377.5zM242 731q0 -178 88.5 -329.5t240.5 -240.5t330 -89q174 0 325 85.5t243 239t92 334.5q0 178 -89 330t-240.5 241t-330.5 89q-182 0 -335 -92t-238.5 -243t-85.5 -325z" />
<glyph unicode="&#xaf;" horiz-adv-x="655" d="M1001 1556h-653l53 97h654z" />
<glyph unicode="&#xb0;" horiz-adv-x="877" d="M242 1190q0 120 85 206.5t208 86.5q122 0 207 -86.5t85 -206.5q0 -122 -85.5 -207.5t-206.5 -85.5q-122 0 -207.5 85.5t-85.5 207.5zM315 1190q0 -89 64.5 -153t155.5 -64q92 0 155.5 64t63.5 153q0 90 -64 155.5t-155 65.5q-90 0 -155 -65.5t-65 -155.5z" />
<glyph unicode="&#xb1;" d="M528 629h-401v98h401v406h101v-406h401v-98h-401v-400h-101v400zM127 0v100h903v-100h-903z" />
<glyph unicode="&#xb2;" horiz-adv-x="643" d="M604 586h-522l16 80l297 258q137 118 182.5 190.5t45.5 153.5q0 59 -38.5 97t-105.5 38q-95 0 -194 -76l-41 62q108 90 239 90q73 0 125 -27t78.5 -72t26.5 -100q0 -106 -59 -198.5t-183 -194.5l-266 -223h416z" />
<glyph unicode="&#xb3;" horiz-adv-x="643" d="M705 1276q0 -85 -48.5 -148t-154.5 -88v-4q66 -16 105.5 -68t39.5 -124q0 -77 -39 -141t-109 -99t-161 -35q-59 0 -123.5 15.5t-105.5 40.5v90q46 -28 108 -48t125 -20q99 0 159 52.5t60 142.5q0 162 -196 162h-84l16 79h86q102 0 168.5 49.5t66.5 129.5 q0 68 -37.5 102.5t-105.5 34.5q-100 0 -199 -68l-40 64q109 86 251 86q100 0 159 -56.5t59 -148.5z" />
<glyph unicode="&#xb4;" horiz-adv-x="1135" d="M580 1262q66 51 150.5 142t129.5 165h137v-23q-51 -66 -157.5 -158.5t-192.5 -146.5h-67v21z" />
<glyph unicode="&#xb5;" horiz-adv-x="1171" d="M238 242q0 -82 48.5 -127t135.5 -45q110 0 207 64.5t162.5 182.5t101.5 285l104 485h99l-234 -1087h-78l29 205h-6q-164 -221 -404 -221q-85 0 -139 32.5t-76 89.5h-6q-18 -132 -51 -284l-63 -314h-97l338 1579h101l-152 -698q-20 -96 -20 -147z" />
<glyph unicode="&#xb6;" horiz-adv-x="1341" d="M1208 -260h-100v1722h-227v-1722h-101v819q-64 -18 -145 -18q-216 0 -318 125t-102 376q0 260 109 387t342 127h542v-1816z" />
<glyph unicode="&#xb7;" horiz-adv-x="485" d="M207 698q0 56 25 88.5t69 32.5q66 0 66 -72q0 -53 -25 -87.5t-67 -34.5q-68 0 -68 73z" />
<glyph unicode="&#xb8;" horiz-adv-x="420" d="M197 -289q0 -94 -75.5 -148.5t-217.5 -54.5q-46 0 -78 7v79q30 -6 72 -6q198 0 198 115q0 97 -151 107l110 190h80l-78 -137q140 -30 140 -152z" />
<glyph unicode="&#xb9;" horiz-adv-x="643" d="M512 1462h80l-186 -876h-84l118 569q5 21 11.5 50.5t14 60t15.5 59t15 49.5q-34 -31 -60 -51.5t-143 -93.5l-39 59z" />
<glyph unicode="&#xba;" horiz-adv-x="655" d="M518 1479q105 0 165 -64t60 -180q0 -115 -40 -214t-114 -156.5t-175 -57.5q-114 0 -169 67.5t-55 184.5q0 112 41.5 209.5t116 154t170.5 56.5zM508 1405q-70 0 -124 -46.5t-84 -124.5t-30 -167q0 -186 156 -186q73 0 125.5 46.5t81.5 127.5t29 176q0 83 -39 128.5 t-115 45.5z" />
<glyph unicode="&#xbb;" horiz-adv-x="860" d="M451 123l-58 49l314 336l-209 385l63 39l254 -418l-2 -27zM90 123l-57 49l313 336l-209 385l64 39l254 -418l-2 -27z" />
<glyph unicode="&#xbc;" horiz-adv-x="1481" d="M1319 230h-131l-49 -229h-82l49 229h-391l21 76l506 577h86l-125 -581h133zM1121 302q61 294 79 365.5t29 105.5q-10 -16 -61 -79t-338 -392h291zM1323 1462l-1087 -1462h-107l1086 1462h108zM509 1462h80l-186 -876h-84l118 569q5 21 11.5 50.5t14 60t15.5 59t15 49.5 q-34 -31 -60 -51.5t-143 -93.5l-39 59z" />
<glyph unicode="&#xbd;" horiz-adv-x="1458" d="M1278 1h-522l16 80l297 258q137 118 182.5 190.5t45.5 153.5q0 59 -38.5 97t-105.5 38q-95 0 -194 -76l-41 62q108 90 239 90q73 0 125 -27t78.5 -72t26.5 -100q0 -106 -59 -198.5t-183 -194.5l-266 -223h416zM431 1462h80l-186 -876h-84l118 569q5 21 11.5 50.5t14 60 t15.5 59t15 49.5q-34 -31 -60 -51.5t-143 -93.5l-39 59zM1247 1462l-1087 -1462h-107l1086 1462h108z" />
<glyph unicode="&#xbe;" horiz-adv-x="1458" d="M1380 230h-131l-49 -229h-82l49 229h-391l21 76l506 577h86l-125 -581h133zM1182 302q61 294 79 365.5t29 105.5q-10 -16 -61 -79t-338 -392h291zM667 1276q0 -85 -48.5 -148t-154.5 -88v-4q66 -16 105.5 -68t39.5 -124q0 -77 -39 -141t-109 -99t-161 -35 q-59 0 -123.5 15.5t-105.5 40.5v90q46 -28 108 -48t125 -20q99 0 159 52.5t60 142.5q0 162 -196 162h-84l16 79h86q102 0 168.5 49.5t66.5 129.5q0 68 -37.5 102.5t-105.5 34.5q-100 0 -199 -68l-40 64q109 86 251 86q100 0 159 -56.5t59 -148.5zM1407 1462l-1087 -1462 h-107l1086 1462h108z" />
<glyph unicode="&#xbf;" horiz-adv-x="799" d="M641 717l-6 -29q-28 -127 -79 -200t-161 -154q-118 -84 -175 -145.5t-86.5 -127.5t-29.5 -141q0 -106 65.5 -168.5t184.5 -62.5q141 0 308 100l38 -86q-85 -49 -170.5 -77.5t-187.5 -28.5q-159 0 -250.5 84.5t-91.5 228.5q0 133 70 240.5t227 220.5q85 61 133.5 109 t73 95t45.5 142h92zM713 1020q0 -56 -25.5 -88.5t-69.5 -32.5q-65 0 -65 72q0 56 25 89.5t67 33.5q68 0 68 -74z" />
<glyph unicode="&#xc0;" horiz-adv-x="1059" d="M805 520h-512l-287 -520h-117l822 1468h67l201 -1468h-105zM793 612l-39 291q-31 242 -39 402q-30 -63 -64.5 -130t-306.5 -563h449zM815 1579h-66q-50 52 -114 144.5t-99 162.5v21h115q46 -129 164 -303v-25z" />
<glyph unicode="&#xc1;" horiz-adv-x="1059" d="M805 520h-512l-287 -520h-117l822 1468h67l201 -1468h-105zM793 612l-39 291q-31 242 -39 402q-30 -63 -64.5 -130t-306.5 -563h449zM668 1600q66 51 150.5 142t129.5 165h137v-23q-51 -66 -157.5 -158.5t-192.5 -146.5h-67v21z" />
<glyph unicode="&#xc2;" horiz-adv-x="1059" d="M805 520h-512l-287 -520h-117l822 1468h67l201 -1468h-105zM793 612l-39 291q-31 242 -39 402q-30 -63 -64.5 -130t-306.5 -563h449zM1007 1579h-49q-70 60 -161 207q-55 -57 -125 -114.5t-125 -92.5h-54v29q68 56 157.5 148.5t127.5 150.5h64q23 -64 72.5 -152.5 t92.5 -146.5v-29z" />
<glyph unicode="&#xc3;" horiz-adv-x="1059" d="M805 520h-512l-287 -520h-117l822 1468h67l201 -1468h-105zM793 612l-39 291q-31 242 -39 402q-30 -63 -64.5 -130t-306.5 -563h449zM911 1587q-40 0 -77.5 19t-75.5 45q-34 23 -64.5 41t-68.5 18q-45 0 -74 -28.5t-51 -100.5h-74q19 108 71 166.5t134 58.5 q41 0 73.5 -14t117.5 -72q52 -36 94 -36q43 0 71.5 30.5t46.5 100.5h76q-26 -118 -74.5 -173t-124.5 -55z" />
<glyph unicode="&#xc4;" horiz-adv-x="1059" d="M805 520h-512l-287 -520h-117l822 1468h67l201 -1468h-105zM793 612l-39 291q-31 242 -39 402q-30 -63 -64.5 -130t-306.5 -563h449zM879 1704q0 49 20.5 78t56.5 29q54 0 54 -64q0 -48 -21 -77t-55 -29q-55 0 -55 63zM535 1704q0 49 20.5 78t56.5 29q54 0 54 -64 q0 -48 -21 -77t-55 -29q-55 0 -55 63z" />
<glyph unicode="&#xc5;" horiz-adv-x="1059" d="M805 520h-512l-287 -520h-117l822 1468h67l201 -1468h-105zM793 612l-39 291q-31 242 -39 402q-30 -63 -64.5 -130t-306.5 -563h449zM945 1600q0 -92 -57.5 -148.5t-145.5 -56.5q-93 0 -148 52t-55 145q0 88 59.5 144t149.5 56q88 0 142.5 -50t54.5 -142zM867 1598 q0 57 -33.5 90t-87.5 33q-60 0 -93.5 -36t-33.5 -93t33 -90t90 -33q56 0 90.5 36t34.5 93z" />
<glyph unicode="&#xc6;" horiz-adv-x="1640" d="M1403 0h-727l110 522h-444l-328 -522h-131l946 1462h883l-20 -94h-625l-117 -553h590l-20 -94h-588l-135 -627h626zM408 627h401l156 741h-88z" />
<glyph unicode="&#xc7;" horiz-adv-x="1169" d="M961 1389q-197 0 -351.5 -104.5t-245 -304.5t-90.5 -441q0 -225 110.5 -346t317.5 -121q140 0 304 51v-94q-156 -49 -316 -49q-252 0 -386 145t-134 410q0 266 104.5 488t284.5 341t402 119q177 0 307 -68l-45 -90q-55 30 -124.5 47t-137.5 17zM752 -289 q0 -94 -75.5 -148.5t-217.5 -54.5q-46 0 -78 7v79q30 -6 72 -6q198 0 198 115q0 97 -151 107l110 190h80l-78 -137q140 -30 140 -152z" />
<glyph unicode="&#xc8;" horiz-adv-x="1067" d="M829 0h-727l310 1462h727l-21 -94h-624l-117 -553h590l-21 -94h-588l-135 -627h627zM891 1579h-66q-50 52 -114 144.5t-99 162.5v21h115q46 -129 164 -303v-25z" />
<glyph unicode="&#xc9;" horiz-adv-x="1067" d="M829 0h-727l310 1462h727l-21 -94h-624l-117 -553h590l-21 -94h-588l-135 -627h627zM654 1600q66 51 150.5 142t129.5 165h137v-23q-51 -66 -157.5 -158.5t-192.5 -146.5h-67v21z" />
<glyph unicode="&#xca;" horiz-adv-x="1067" d="M829 0h-727l310 1462h727l-21 -94h-624l-117 -553h590l-21 -94h-588l-135 -627h627zM1036 1579h-49q-70 60 -161 207q-55 -57 -125 -114.5t-125 -92.5h-54v29q68 56 157.5 148.5t127.5 150.5h64q23 -64 72.5 -152.5t92.5 -146.5v-29z" />
<glyph unicode="&#xcb;" horiz-adv-x="1067" d="M829 0h-727l310 1462h727l-21 -94h-624l-117 -553h590l-21 -94h-588l-135 -627h627zM902 1704q0 49 20.5 78t56.5 29q54 0 54 -64q0 -48 -21 -77t-55 -29q-55 0 -55 63zM558 1704q0 49 20.5 78t56.5 29q54 0 54 -64q0 -48 -21 -77t-55 -29q-55 0 -55 63z" />
<glyph unicode="&#xcc;" horiz-adv-x="504" d="M102 0l310 1462h98l-309 -1462h-99zM525 1579h-66q-50 52 -114 144.5t-99 162.5v21h115q46 -129 164 -303v-25z" />
<glyph unicode="&#xcd;" horiz-adv-x="504" d="M102 0l310 1462h98l-309 -1462h-99zM419 1600q66 51 150.5 142t129.5 165h137v-23q-51 -66 -157.5 -158.5t-192.5 -146.5h-67v21z" />
<glyph unicode="&#xce;" horiz-adv-x="504" d="M102 0l310 1462h98l-309 -1462h-99zM738 1579h-49q-70 60 -161 207q-55 -57 -125 -114.5t-125 -92.5h-54v29q68 56 157.5 148.5t127.5 150.5h64q23 -64 72.5 -152.5t92.5 -146.5v-29z" />
<glyph unicode="&#xcf;" horiz-adv-x="504" d="M102 0l310 1462h98l-309 -1462h-99zM604 1704q0 49 20.5 78t56.5 29q54 0 54 -64q0 -48 -21 -77t-55 -29q-55 0 -55 63zM260 1704q0 49 20.5 78t56.5 29q54 0 54 -64q0 -48 -21 -77t-55 -29q-55 0 -55 63z" />
<glyph unicode="&#xd0;" horiz-adv-x="1352" d="M1288 879q0 -253 -109.5 -461.5t-300.5 -313t-446 -104.5h-330l144 676h-156l21 96h155l146 690h305q282 0 426.5 -147.5t144.5 -435.5zM430 90q226 0 394.5 94.5t261 275.5t92.5 412q0 498 -476 498h-206l-129 -598h378l-20 -96h-379l-125 -586h209z" />
<glyph unicode="&#xd1;" horiz-adv-x="1372" d="M1069 0h-86l-516 1284h-8q-23 -149 -48 -273t-214 -1011h-95l310 1462h80l522 -1294h8q23 176 74 416l188 878h94zM1062 1587q-40 0 -77.5 19t-75.5 45q-34 23 -64.5 41t-68.5 18q-45 0 -74 -28.5t-51 -100.5h-74q19 108 71 166.5t134 58.5q41 0 73.5 -14t117.5 -72 q52 -36 94 -36q43 0 71.5 30.5t46.5 100.5h76q-26 -118 -74.5 -173t-124.5 -55z" />
<glyph unicode="&#xd2;" horiz-adv-x="1464" d="M1403 911q0 -255 -94 -481.5t-252 -338t-365 -111.5q-250 0 -385 149t-135 430q0 262 93 477.5t255 331t373 115.5q247 0 378.5 -148.5t131.5 -423.5zM879 1389q-174 0 -308.5 -101t-214.5 -298t-80 -417q0 -245 109.5 -373t319.5 -128q169 0 300 98.5t210 300t79 430.5 q0 240 -104.5 364t-310.5 124zM989 1579h-66q-50 52 -114 144.5t-99 162.5v21h115q46 -129 164 -303v-25z" />
<glyph unicode="&#xd3;" horiz-adv-x="1464" d="M1403 911q0 -255 -94 -481.5t-252 -338t-365 -111.5q-250 0 -385 149t-135 430q0 262 93 477.5t255 331t373 115.5q247 0 378.5 -148.5t131.5 -423.5zM879 1389q-174 0 -308.5 -101t-214.5 -298t-80 -417q0 -245 109.5 -373t319.5 -128q169 0 300 98.5t210 300t79 430.5 q0 240 -104.5 364t-310.5 124zM844 1600q66 51 150.5 142t129.5 165h137v-23q-51 -66 -157.5 -158.5t-192.5 -146.5h-67v21z" />
<glyph unicode="&#xd4;" horiz-adv-x="1464" d="M1403 911q0 -255 -94 -481.5t-252 -338t-365 -111.5q-250 0 -385 149t-135 430q0 262 93 477.5t255 331t373 115.5q247 0 378.5 -148.5t131.5 -423.5zM879 1389q-174 0 -308.5 -101t-214.5 -298t-80 -417q0 -245 109.5 -373t319.5 -128q169 0 300 98.5t210 300t79 430.5 q0 240 -104.5 364t-310.5 124zM1171 1579h-49q-70 60 -161 207q-55 -57 -125 -114.5t-125 -92.5h-54v29q68 56 157.5 148.5t127.5 150.5h64q23 -64 72.5 -152.5t92.5 -146.5v-29z" />
<glyph unicode="&#xd5;" horiz-adv-x="1464" d="M1403 911q0 -255 -94 -481.5t-252 -338t-365 -111.5q-250 0 -385 149t-135 430q0 262 93 477.5t255 331t373 115.5q247 0 378.5 -148.5t131.5 -423.5zM879 1389q-174 0 -308.5 -101t-214.5 -298t-80 -417q0 -245 109.5 -373t319.5 -128q169 0 300 98.5t210 300t79 430.5 q0 240 -104.5 364t-310.5 124zM1077 1587q-40 0 -77.5 19t-75.5 45q-34 23 -64.5 41t-68.5 18q-45 0 -74 -28.5t-51 -100.5h-74q19 108 71 166.5t134 58.5q41 0 73.5 -14t117.5 -72q52 -36 94 -36q43 0 71.5 30.5t46.5 100.5h76q-26 -118 -74.5 -173t-124.5 -55z" />
<glyph unicode="&#xd6;" horiz-adv-x="1464" d="M1403 911q0 -255 -94 -481.5t-252 -338t-365 -111.5q-250 0 -385 149t-135 430q0 262 93 477.5t255 331t373 115.5q247 0 378.5 -148.5t131.5 -423.5zM879 1389q-174 0 -308.5 -101t-214.5 -298t-80 -417q0 -245 109.5 -373t319.5 -128q169 0 300 98.5t210 300t79 430.5 q0 240 -104.5 364t-310.5 124zM1031 1704q0 49 20.5 78t56.5 29q54 0 54 -64q0 -48 -21 -77t-55 -29q-55 0 -55 63zM687 1704q0 49 20.5 78t56.5 29q54 0 54 -64q0 -48 -21 -77t-55 -29q-55 0 -55 63z" />
<glyph unicode="&#xd7;" d="M551 723l-330 332l70 69l330 -329l333 329l68 -67l-332 -334l332 -332l-68 -67l-333 329l-330 -327l-68 67z" />
<glyph unicode="&#xd8;" horiz-adv-x="1464" d="M1403 911q0 -187 -52 -365.5t-144.5 -304.5t-223 -193.5t-291.5 -67.5q-215 0 -348 112l-139 -170l-66 64l146 172q-113 149 -113 401q0 263 94 479.5t256.5 330.5t370.5 114q219 0 352 -121l133 168l70 -53l-145 -183q45 -51 72.5 -161t27.5 -222zM879 1389 q-134 0 -244 -59.5t-188.5 -170t-124.5 -267.5t-46 -319q0 -105 21.5 -191t56.5 -138l826 1032q-107 113 -301 113zM1294 901q0 85 -17.5 172t-43.5 129l-821 -1030q107 -100 293 -100q170 0 301 100t209.5 296.5t78.5 432.5z" />
<glyph unicode="&#xd9;" horiz-adv-x="1370" d="M1395 1462l-207 -977q-58 -270 -197 -387.5t-375 -117.5q-440 0 -440 401q0 83 27 201l186 880h103l-193 -899q-20 -89 -20 -184q0 -309 342 -309q195 0 307.5 96.5t158.5 318.5l207 977h101zM946 1579h-66q-50 52 -114 144.5t-99 162.5v21h115q46 -129 164 -303v-25z " />
<glyph unicode="&#xda;" horiz-adv-x="1370" d="M1395 1462l-207 -977q-58 -270 -197 -387.5t-375 -117.5q-440 0 -440 401q0 83 27 201l186 880h103l-193 -899q-20 -89 -20 -184q0 -309 342 -309q195 0 307.5 96.5t158.5 318.5l207 977h101zM838 1600q66 51 150.5 142t129.5 165h137v-23q-51 -66 -157.5 -158.5 t-192.5 -146.5h-67v21z" />
<glyph unicode="&#xdb;" horiz-adv-x="1370" d="M1395 1462l-207 -977q-58 -270 -197 -387.5t-375 -117.5q-440 0 -440 401q0 83 27 201l186 880h103l-193 -899q-20 -89 -20 -184q0 -309 342 -309q195 0 307.5 96.5t158.5 318.5l207 977h101zM1148 1579h-49q-70 60 -161 207q-55 -57 -125 -114.5t-125 -92.5h-54v29 q68 56 157.5 148.5t127.5 150.5h64q23 -64 72.5 -152.5t92.5 -146.5v-29z" />
<glyph unicode="&#xdc;" horiz-adv-x="1370" d="M1395 1462l-207 -977q-58 -270 -197 -387.5t-375 -117.5q-440 0 -440 401q0 83 27 201l186 880h103l-193 -899q-20 -89 -20 -184q0 -309 342 -309q195 0 307.5 96.5t158.5 318.5l207 977h101zM1022 1704q0 49 20.5 78t56.5 29q54 0 54 -64q0 -48 -21 -77t-55 -29 q-55 0 -55 63zM678 1704q0 49 20.5 78t56.5 29q54 0 54 -64q0 -48 -21 -77t-55 -29q-55 0 -55 63z" />
<glyph unicode="&#xdd;" horiz-adv-x="965" d="M494 645l544 817h117l-631 -932l-108 -530h-105l119 545l-237 917h100zM563 1600q66 51 150.5 142t129.5 165h137v-23q-51 -66 -157.5 -158.5t-192.5 -146.5h-67v21z" />
<glyph unicode="&#xde;" horiz-adv-x="1145" d="M1087 836q0 -247 -153 -373.5t-457 -126.5h-201l-71 -336h-103l310 1462h102l-57 -266h213q200 0 308.5 -92.5t108.5 -267.5zM293 428h190q256 0 376 98.5t120 302.5q0 275 -330 275h-211z" />
<glyph unicode="&#xdf;" horiz-adv-x="1094" d="M-162 -492q-73 0 -119 23v90q53 -24 115 -24q79 0 123 50.5t66 153.5l305 1409q80 357 405 357q137 0 215 -61.5t78 -174.5q0 -75 -44.5 -140.5t-166.5 -148.5q-107 -76 -141.5 -124.5t-34.5 -106.5q0 -51 34 -88.5t93 -75.5q96 -63 138 -133.5t42 -165.5 q0 -170 -106.5 -269t-286.5 -99q-143 0 -234 65v109q45 -36 112.5 -59t129.5 -23q132 0 208.5 71t76.5 195q0 75 -31.5 129t-109.5 108q-82 58 -119 110.5t-37 121.5q0 57 21 103t60.5 88.5t137.5 113.5q101 70 131.5 116t30.5 101q0 70 -55 110t-150 40q-129 0 -205 -76 t-108 -229l-291 -1377q-33 -152 -103.5 -220.5t-179.5 -68.5z" />
<glyph unicode="&#xe0;" horiz-adv-x="1133" d="M655 1104q232 0 279 -219h6l59 202h80l-229 -1087h-82l45 274h-6q-84 -142 -187 -218t-237 -76q-281 0 -281 374q0 197 75 376t200.5 276.5t277.5 97.5zM406 70q89 0 177.5 62t159 166t107.5 230t37 213q0 79 -26 141.5t-77 99t-127 36.5q-124 0 -224 -82t-164 -245.5 t-64 -325.5q0 -152 50 -223.5t151 -71.5zM809 1241h-66q-50 52 -114 144.5t-99 162.5v21h115q46 -129 164 -303v-25z" />
<glyph unicode="&#xe1;" horiz-adv-x="1133" d="M655 1104q232 0 279 -219h6l59 202h80l-229 -1087h-82l45 274h-6q-84 -142 -187 -218t-237 -76q-281 0 -281 374q0 197 75 376t200.5 276.5t277.5 97.5zM406 70q89 0 177.5 62t159 166t107.5 230t37 213q0 79 -26 141.5t-77 99t-127 36.5q-124 0 -224 -82t-164 -245.5 t-64 -325.5q0 -152 50 -223.5t151 -71.5zM586 1262q66 51 150.5 142t129.5 165h137v-23q-51 -66 -157.5 -158.5t-192.5 -146.5h-67v21z" />
<glyph unicode="&#xe2;" horiz-adv-x="1133" d="M655 1104q232 0 279 -219h6l59 202h80l-229 -1087h-82l45 274h-6q-84 -142 -187 -218t-237 -76q-281 0 -281 374q0 197 75 376t200.5 276.5t277.5 97.5zM406 70q89 0 177.5 62t159 166t107.5 230t37 213q0 79 -26 141.5t-77 99t-127 36.5q-124 0 -224 -82t-164 -245.5 t-64 -325.5q0 -152 50 -223.5t151 -71.5zM955 1243h-49q-70 60 -161 207q-55 -57 -125 -114.5t-125 -92.5h-54v29q68 56 157.5 148.5t127.5 150.5h64q23 -64 72.5 -152.5t92.5 -146.5v-29z" />
<glyph unicode="&#xe3;" horiz-adv-x="1133" d="M655 1104q232 0 279 -219h6l59 202h80l-229 -1087h-82l45 274h-6q-84 -142 -187 -218t-237 -76q-281 0 -281 374q0 197 75 376t200.5 276.5t277.5 97.5zM406 70q89 0 177.5 62t159 166t107.5 230t37 213q0 79 -26 141.5t-77 99t-127 36.5q-124 0 -224 -82t-164 -245.5 t-64 -325.5q0 -152 50 -223.5t151 -71.5zM858 1249q-40 0 -77.5 19t-75.5 45q-34 23 -64.5 41t-68.5 18q-45 0 -74 -28.5t-51 -100.5h-74q19 108 71 166.5t134 58.5q41 0 73.5 -14t117.5 -72q52 -36 94 -36q43 0 71.5 30.5t46.5 100.5h76q-26 -118 -74.5 -173t-124.5 -55z " />
<glyph unicode="&#xe4;" horiz-adv-x="1133" d="M655 1104q232 0 279 -219h6l59 202h80l-229 -1087h-82l45 274h-6q-84 -142 -187 -218t-237 -76q-281 0 -281 374q0 197 75 376t200.5 276.5t277.5 97.5zM406 70q89 0 177.5 62t159 166t107.5 230t37 213q0 79 -26 141.5t-77 99t-127 36.5q-124 0 -224 -82t-164 -245.5 t-64 -325.5q0 -152 50 -223.5t151 -71.5zM835 1366q0 49 20.5 78t56.5 29q54 0 54 -64q0 -48 -21 -77t-55 -29q-55 0 -55 63zM491 1366q0 49 20.5 78t56.5 29q54 0 54 -64q0 -48 -21 -77t-55 -29q-55 0 -55 63z" />
<glyph unicode="&#xe5;" horiz-adv-x="1133" d="M655 1104q232 0 279 -219h6l59 202h80l-229 -1087h-82l45 274h-6q-84 -142 -187 -218t-237 -76q-281 0 -281 374q0 197 75 376t200.5 276.5t277.5 97.5zM406 70q89 0 177.5 62t159 166t107.5 230t37 213q0 79 -26 141.5t-77 99t-127 36.5q-124 0 -224 -82t-164 -245.5 t-64 -325.5q0 -152 50 -223.5t151 -71.5zM927 1448q0 -92 -57.5 -148.5t-145.5 -56.5q-93 0 -148 52t-55 145q0 88 59.5 144t149.5 56q88 0 142.5 -50t54.5 -142zM849 1446q0 57 -33.5 90t-87.5 33q-60 0 -93.5 -36t-33.5 -93t33 -90t90 -33q56 0 90.5 36t34.5 93z" />
<glyph unicode="&#xe6;" horiz-adv-x="1602" d="M1155 -20q-123 0 -211 60t-117 165l-39 -205h-77l41 254h-9q-94 -142 -189 -208t-208 -66q-120 0 -182 94t-62 270q0 206 70.5 384.5t192.5 277t274 98.5q106 0 166 -56.5t74 -156.5h10l59 192h66l-35 -186q139 207 350 207q112 0 175 -61.5t63 -172.5 q0 -179 -158.5 -271.5t-470.5 -92.5h-39q-8 -51 -8 -96q0 -161 69.5 -250.5t217.5 -89.5q69 0 133.5 21t130.5 52v-94q-80 -37 -147 -53t-140 -16zM369 70q67 0 138.5 42t134 117.5t106 170.5t63.5 199t20 165q0 118 -49 186t-141 68q-123 0 -223 -86t-156.5 -240 t-56.5 -340q0 -150 42.5 -216t121.5 -66zM1317 1018q-119 0 -232 -115.5t-172 -308.5h48q263 0 383 67t120 203q0 71 -38.5 112.5t-108.5 41.5z" />
<glyph unicode="&#xe7;" horiz-adv-x="887" d="M477 -20q-174 0 -274.5 110.5t-100.5 306.5q0 193 73.5 361.5t198.5 257t290 88.5q134 0 241 -43l-28 -90q-107 47 -218 47q-129 0 -232.5 -77t-162.5 -222t-59 -320q0 -158 73.5 -243.5t208.5 -85.5q71 0 131.5 13t131.5 46v-92q-116 -57 -273 -57zM574 -289 q0 -94 -75.5 -148.5t-217.5 -54.5q-46 0 -78 7v79q30 -6 72 -6q198 0 198 115q0 97 -151 107l110 190h80l-78 -137q140 -30 140 -152z" />
<glyph unicode="&#xe8;" horiz-adv-x="928" d="M469 -20q-173 0 -270 109.5t-97 305.5q0 181 71 347t195.5 264t274.5 98q114 0 182 -61t68 -166q0 -181 -163.5 -276t-485.5 -95h-33q-6 -44 -6 -98q0 -165 74 -251.5t213 -86.5q132 0 276 73v-94q-140 -69 -299 -69zM631 1018q-131 0 -243.5 -115.5t-162.5 -308.5h49 q517 0 517 270q0 67 -43.5 110.5t-116.5 43.5zM751 1241h-66q-50 52 -114 144.5t-99 162.5v21h115q46 -129 164 -303v-25z" />
<glyph unicode="&#xe9;" horiz-adv-x="928" d="M469 -20q-173 0 -270 109.5t-97 305.5q0 181 71 347t195.5 264t274.5 98q114 0 182 -61t68 -166q0 -181 -163.5 -276t-485.5 -95h-33q-6 -44 -6 -98q0 -165 74 -251.5t213 -86.5q132 0 276 73v-94q-140 -69 -299 -69zM631 1018q-131 0 -243.5 -115.5t-162.5 -308.5h49 q517 0 517 270q0 67 -43.5 110.5t-116.5 43.5zM532 1262q66 51 150.5 142t129.5 165h137v-23q-51 -66 -157.5 -158.5t-192.5 -146.5h-67v21z" />
<glyph unicode="&#xea;" horiz-adv-x="928" d="M469 -20q-173 0 -270 109.5t-97 305.5q0 181 71 347t195.5 264t274.5 98q114 0 182 -61t68 -166q0 -181 -163.5 -276t-485.5 -95h-33q-6 -44 -6 -98q0 -165 74 -251.5t213 -86.5q132 0 276 73v-94q-140 -69 -299 -69zM631 1018q-131 0 -243.5 -115.5t-162.5 -308.5h49 q517 0 517 270q0 67 -43.5 110.5t-116.5 43.5zM904 1241h-49q-70 60 -161 207q-55 -57 -125 -114.5t-125 -92.5h-54v29q68 56 157.5 148.5t127.5 150.5h64q23 -64 72.5 -152.5t92.5 -146.5v-29z" />
<glyph unicode="&#xeb;" horiz-adv-x="928" d="M469 -20q-173 0 -270 109.5t-97 305.5q0 181 71 347t195.5 264t274.5 98q114 0 182 -61t68 -166q0 -181 -163.5 -276t-485.5 -95h-33q-6 -44 -6 -98q0 -165 74 -251.5t213 -86.5q132 0 276 73v-94q-140 -69 -299 -69zM631 1018q-131 0 -243.5 -115.5t-162.5 -308.5h49 q517 0 517 270q0 67 -43.5 110.5t-116.5 43.5zM780 1366q0 49 20.5 78t56.5 29q54 0 54 -64q0 -48 -21 -77t-55 -29q-55 0 -55 63zM436 1366q0 49 20.5 78t56.5 29q54 0 54 -64q0 -48 -21 -77t-55 -29q-55 0 -55 63z" />
<glyph unicode="&#xec;" horiz-adv-x="475" d="M174 0h-98l231 1087h96zM454 1241h-66q-50 52 -114 144.5t-99 162.5v21h115q46 -129 164 -303v-25z" />
<glyph unicode="&#xed;" horiz-adv-x="475" d="M174 0h-98l231 1087h96zM284 1262q66 51 150.5 142t129.5 165h137v-23q-51 -66 -157.5 -158.5t-192.5 -146.5h-67v21z" />
<glyph unicode="&#xee;" horiz-adv-x="475" d="M174 0h-98l231 1087h96zM642 1241h-49q-70 60 -161 207q-55 -57 -125 -114.5t-125 -92.5h-54v29q68 56 157.5 148.5t127.5 150.5h64q23 -64 72.5 -152.5t92.5 -146.5v-29z" />
<glyph unicode="&#xef;" horiz-adv-x="475" d="M174 0h-98l231 1087h96zM515 1366q0 49 20.5 78t56.5 29q54 0 54 -64q0 -48 -21 -77t-55 -29q-55 0 -55 63zM171 1366q0 49 20.5 78t56.5 29q54 0 54 -64q0 -48 -21 -77t-55 -29q-55 0 -55 63z" />
<glyph unicode="&#xf0;" horiz-adv-x="1124" d="M713 1364q-54 60 -158 139l59 68q32 -26 81 -66t100 -94l266 150l39 -74l-256 -141q87 -116 131.5 -276t44.5 -335q0 -355 -141.5 -555t-399.5 -200q-177 0 -277 106.5t-100 294.5q0 170 63 301.5t178.5 203.5t262.5 72q107 0 188 -49.5t121 -142.5h5q0 139 -43 289 t-115 243l-295 -163l-39 73zM489 70q118 0 208.5 61t144 186.5t53.5 270.5q0 77 -35 142t-100 101.5t-156 36.5q-124 0 -213.5 -61.5t-137.5 -169.5t-48 -248q0 -153 73.5 -236t210.5 -83z" />
<glyph unicode="&#xf1;" horiz-adv-x="1143" d="M764 0l149 692q21 92 21 156q0 80 -43.5 125t-134.5 45q-112 0 -210.5 -67t-166 -187.5t-103.5 -286.5l-102 -477h-98l231 1087h82l-37 -221h6q164 238 416 238q130 0 195 -64t65 -184q0 -70 -24 -182l-148 -674h-98zM874 1249q-40 0 -77.5 19t-75.5 45q-34 23 -64.5 41 t-68.5 18q-45 0 -74 -28.5t-51 -100.5h-74q19 108 71 166.5t134 58.5q41 0 73.5 -14t117.5 -72q52 -36 94 -36q43 0 71.5 30.5t46.5 100.5h76q-26 -118 -74.5 -173t-124.5 -55z" />
<glyph unicode="&#xf2;" horiz-adv-x="1124" d="M649 1108q180 0 278.5 -108.5t98.5 -299.5q0 -197 -71.5 -368.5t-195.5 -261.5t-286 -90q-184 0 -279.5 109.5t-95.5 313.5q0 191 73 358t197 257t281 90zM641 1022q-124 0 -223 -78.5t-158 -225t-59 -310.5q0 -342 282 -342q127 0 225.5 77.5t157 228t58.5 330.5 q0 154 -73 237t-210 83zM744 1241h-66q-50 52 -114 144.5t-99 162.5v21h115q46 -129 164 -303v-25z" />
<glyph unicode="&#xf3;" horiz-adv-x="1124" d="M649 1108q180 0 278.5 -108.5t98.5 -299.5q0 -197 -71.5 -368.5t-195.5 -261.5t-286 -90q-184 0 -279.5 109.5t-95.5 313.5q0 191 73 358t197 257t281 90zM641 1022q-124 0 -223 -78.5t-158 -225t-59 -310.5q0 -342 282 -342q127 0 225.5 77.5t157 228t58.5 330.5 q0 154 -73 237t-210 83zM573 1262q66 51 150.5 142t129.5 165h137v-23q-51 -66 -157.5 -158.5t-192.5 -146.5h-67v21z" />
<glyph unicode="&#xf4;" horiz-adv-x="1124" d="M649 1108q180 0 278.5 -108.5t98.5 -299.5q0 -197 -71.5 -368.5t-195.5 -261.5t-286 -90q-184 0 -279.5 109.5t-95.5 313.5q0 191 73 358t197 257t281 90zM641 1022q-124 0 -223 -78.5t-158 -225t-59 -310.5q0 -342 282 -342q127 0 225.5 77.5t157 228t58.5 330.5 q0 154 -73 237t-210 83zM941 1241h-49q-70 60 -161 207q-55 -57 -125 -114.5t-125 -92.5h-54v29q68 56 157.5 148.5t127.5 150.5h64q23 -64 72.5 -152.5t92.5 -146.5v-29z" />
<glyph unicode="&#xf5;" horiz-adv-x="1124" d="M649 1108q180 0 278.5 -108.5t98.5 -299.5q0 -197 -71.5 -368.5t-195.5 -261.5t-286 -90q-184 0 -279.5 109.5t-95.5 313.5q0 191 73 358t197 257t281 90zM641 1022q-124 0 -223 -78.5t-158 -225t-59 -310.5q0 -342 282 -342q127 0 225.5 77.5t157 228t58.5 330.5 q0 154 -73 237t-210 83zM839 1249q-40 0 -77.5 19t-75.5 45q-34 23 -64.5 41t-68.5 18q-45 0 -74 -28.5t-51 -100.5h-74q19 108 71 166.5t134 58.5q41 0 73.5 -14t117.5 -72q52 -36 94 -36q43 0 71.5 30.5t46.5 100.5h76q-26 -118 -74.5 -173t-124.5 -55z" />
<glyph unicode="&#xf6;" horiz-adv-x="1124" d="M649 1108q180 0 278.5 -108.5t98.5 -299.5q0 -197 -71.5 -368.5t-195.5 -261.5t-286 -90q-184 0 -279.5 109.5t-95.5 313.5q0 191 73 358t197 257t281 90zM641 1022q-124 0 -223 -78.5t-158 -225t-59 -310.5q0 -342 282 -342q127 0 225.5 77.5t157 228t58.5 330.5 q0 154 -73 237t-210 83zM812 1366q0 49 20.5 78t56.5 29q54 0 54 -64q0 -48 -21 -77t-55 -29q-55 0 -55 63zM468 1366q0 49 20.5 78t56.5 29q54 0 54 -64q0 -48 -21 -77t-55 -29q-55 0 -55 63z" />
<glyph unicode="&#xf7;" d="M168 672v100h903v-100h-903zM522 373q0 106 96 106q48 0 73.5 -27.5t25.5 -78.5q0 -57 -29 -82t-70 -25q-96 0 -96 107zM522 1071q0 107 96 107q46 0 72.5 -27.5t26.5 -79.5q0 -57 -29 -81.5t-70 -24.5q-96 0 -96 106z" />
<glyph unicode="&#xf8;" horiz-adv-x="1124" d="M164 127q-66 106 -66 276q0 191 73 358t197 257t281 90q150 0 250 -82l109 133l65 -53l-117 -143q70 -105 70 -263q0 -197 -71.5 -368.5t-195.5 -261.5t-286 -90q-163 0 -254 83l-110 -135l-64 54zM924 702q0 101 -35 179l-608 -742q67 -73 202 -73q127 0 225.5 77.5 t157 228t58.5 330.5zM641 1022q-124 0 -223 -78.5t-158 -225t-59 -310.5q0 -125 32 -197l605 739q-74 72 -197 72z" />
<glyph unicode="&#xf9;" horiz-adv-x="1143" d="M381 1087l-152 -698q-22 -106 -22 -158q0 -74 47.5 -117.5t138.5 -43.5q110 0 207.5 65.5t164 187t99.5 279.5l105 485h98l-231 -1087h-80l28 205h-6q-167 -221 -403 -221q-131 0 -198.5 62t-67.5 181q0 60 22 170l150 690h100zM774 1241h-66q-50 52 -114 144.5 t-99 162.5v21h115q46 -129 164 -303v-25z" />
<glyph unicode="&#xfa;" horiz-adv-x="1143" d="M381 1087l-152 -698q-22 -106 -22 -158q0 -74 47.5 -117.5t138.5 -43.5q110 0 207.5 65.5t164 187t99.5 279.5l105 485h98l-231 -1087h-80l28 205h-6q-167 -221 -403 -221q-131 0 -198.5 62t-67.5 181q0 60 22 170l150 690h100zM627 1262q66 51 150.5 142t129.5 165h137 v-23q-51 -66 -157.5 -158.5t-192.5 -146.5h-67v21z" />
<glyph unicode="&#xfb;" horiz-adv-x="1143" d="M381 1087l-152 -698q-22 -106 -22 -158q0 -74 47.5 -117.5t138.5 -43.5q110 0 207.5 65.5t164 187t99.5 279.5l105 485h98l-231 -1087h-80l28 205h-6q-167 -221 -403 -221q-131 0 -198.5 62t-67.5 181q0 60 22 170l150 690h100zM957 1241h-49q-70 60 -161 207 q-55 -57 -125 -114.5t-125 -92.5h-54v29q68 56 157.5 148.5t127.5 150.5h64q23 -64 72.5 -152.5t92.5 -146.5v-29z" />
<glyph unicode="&#xfc;" horiz-adv-x="1143" d="M381 1087l-152 -698q-22 -106 -22 -158q0 -74 47.5 -117.5t138.5 -43.5q110 0 207.5 65.5t164 187t99.5 279.5l105 485h98l-231 -1087h-80l28 205h-6q-167 -221 -403 -221q-131 0 -198.5 62t-67.5 181q0 60 22 170l150 690h100zM827 1366q0 49 20.5 78t56.5 29 q54 0 54 -64q0 -48 -21 -77t-55 -29q-55 0 -55 63zM483 1366q0 49 20.5 78t56.5 29q54 0 54 -64q0 -48 -21 -77t-55 -29q-55 0 -55 63z" />
<glyph unicode="&#xfd;" horiz-adv-x="920" d="M123 1087h100l82 -548q51 -351 55 -449h11q43 105 186 367l348 630h103l-713 -1290q-72 -127 -122.5 -178t-114 -81t-146.5 -30q-68 0 -129 21v92q71 -27 137 -27q80 0 147 49.5t130 164.5t100 184zM505 1262q66 51 150.5 142t129.5 165h137v-23q-51 -66 -157.5 -158.5 t-192.5 -146.5h-67v21z" />
<glyph unicode="&#xfe;" horiz-adv-x="1163" d="M498 -16q-230 0 -279 219h-4q-13 -72 -149 -695h-99l434 2048h99q-114 -535 -164 -751h6q93 156 199 229.5t231 73.5q133 0 206 -92.5t73 -282.5q0 -195 -72 -371t-197.5 -277t-283.5 -101zM748 1018q-86 0 -172.5 -57.5t-162.5 -169.5t-111.5 -238t-35.5 -207 q0 -125 61.5 -200.5t168.5 -75.5q124 0 225 84t164 243.5t63 325.5q0 295 -200 295z" />
<glyph unicode="&#xff;" horiz-adv-x="920" d="M123 1087h100l82 -548q51 -351 55 -449h11q43 105 186 367l348 630h103l-713 -1290q-72 -127 -122.5 -178t-114 -81t-146.5 -30q-68 0 -129 21v92q71 -27 137 -27q80 0 147 49.5t130 164.5t100 184zM698 1366q0 49 20.5 78t56.5 29q54 0 54 -64q0 -48 -21 -77t-55 -29 q-55 0 -55 63zM354 1366q0 49 20.5 78t56.5 29q54 0 54 -64q0 -48 -21 -77t-55 -29q-55 0 -55 63z" />
<glyph unicode="&#x100;" horiz-adv-x="1059" d="M805 520h-512l-287 -520h-117l822 1468h67l201 -1468h-105zM793 612l-39 291q-31 242 -39 402q-30 -63 -64.5 -130t-306.5 -563h449zM512 1671h508l-18 -88h-508z" />
<glyph unicode="&#x101;" horiz-adv-x="1133" d="M655 1104q232 0 279 -219h6l59 202h80l-229 -1087h-82l45 274h-6q-84 -142 -187 -218t-237 -76q-281 0 -281 374q0 197 75 376t200.5 276.5t277.5 97.5zM406 70q89 0 177.5 62t159 166t107.5 230t37 213q0 79 -26 141.5t-77 99t-127 36.5q-124 0 -224 -82t-164 -245.5 t-64 -325.5q0 -152 50 -223.5t151 -71.5zM469 1333h508l-18 -88h-508z" />
<glyph unicode="&#x102;" horiz-adv-x="1059" d="M805 520h-512l-287 -520h-117l822 1468h67l201 -1468h-105zM793 612l-39 291q-31 242 -39 402q-30 -63 -64.5 -130t-306.5 -563h449zM1043 1819q-29 -120 -101 -177t-192 -57q-105 0 -163 50.5t-58 142.5v21l2 20h69q0 -68 36 -103t122 -35q85 0 136.5 30.5t76.5 107.5 h72z" />
<glyph unicode="&#x103;" horiz-adv-x="1133" d="M655 1104q232 0 279 -219h6l59 202h80l-229 -1087h-82l45 274h-6q-84 -142 -187 -218t-237 -76q-281 0 -281 374q0 197 75 376t200.5 276.5t277.5 97.5zM406 70q89 0 177.5 62t159 166t107.5 230t37 213q0 79 -26 141.5t-77 99t-127 36.5q-124 0 -224 -82t-164 -245.5 t-64 -325.5q0 -152 50 -223.5t151 -71.5zM1020 1481q-29 -120 -101 -177t-192 -57q-105 0 -163 50.5t-58 142.5v21l2 20h69q0 -68 36 -103t122 -35q85 0 136.5 30.5t76.5 107.5h72z" />
<glyph unicode="&#x104;" horiz-adv-x="1059" d="M805 520h-512l-287 -520h-117l822 1468h67l201 -1468h-105zM793 612l-39 291q-31 242 -39 402q-30 -63 -64.5 -130t-306.5 -563h449zM947 0l-75 -60q-61 -47 -91.5 -95t-30.5 -101q0 -82 88 -82q33 0 76 10v-71q-41 -15 -98 -15q-75 0 -116.5 38t-41.5 108q0 69 48 132.5 t169 135.5h72z" />
<glyph unicode="&#x105;" horiz-adv-x="1133" d="M655 1104q232 0 279 -219h6l59 202h80l-229 -1087h-82l45 274h-6q-84 -142 -187 -218t-237 -76q-281 0 -281 374q0 197 75 376t200.5 276.5t277.5 97.5zM406 70q89 0 177.5 62t159 166t107.5 230t37 213q0 79 -26 141.5t-77 99t-127 36.5q-124 0 -224 -82t-164 -245.5 t-64 -325.5q0 -152 50 -223.5t151 -71.5zM840 0l-75 -60q-61 -47 -91.5 -95t-30.5 -101q0 -82 88 -82q33 0 76 10v-71q-41 -15 -98 -15q-75 0 -116.5 38t-41.5 108q0 69 48 132.5t169 135.5h72z" />
<glyph unicode="&#x106;" horiz-adv-x="1169" d="M961 1389q-197 0 -351.5 -104.5t-245 -304.5t-90.5 -441q0 -225 110.5 -346t317.5 -121q140 0 304 51v-94q-156 -49 -316 -49q-252 0 -386 145t-134 410q0 266 104.5 488t284.5 341t402 119q177 0 307 -68l-45 -90q-55 30 -124.5 47t-137.5 17zM856 1600q66 51 150.5 142 t129.5 165h137v-23q-51 -66 -157.5 -158.5t-192.5 -146.5h-67v21z" />
<glyph unicode="&#x107;" horiz-adv-x="887" d="M477 -20q-174 0 -274.5 110.5t-100.5 306.5q0 193 73.5 361.5t198.5 257t290 88.5q134 0 241 -43l-28 -90q-107 47 -218 47q-129 0 -232.5 -77t-162.5 -222t-59 -320q0 -158 73.5 -243.5t208.5 -85.5q71 0 131.5 13t131.5 46v-92q-116 -57 -273 -57zM577 1262 q66 51 150.5 142t129.5 165h137v-23q-51 -66 -157.5 -158.5t-192.5 -146.5h-67v21z" />
<glyph unicode="&#x108;" horiz-adv-x="1169" d="M961 1389q-197 0 -351.5 -104.5t-245 -304.5t-90.5 -441q0 -225 110.5 -346t317.5 -121q140 0 304 51v-94q-156 -49 -316 -49q-252 0 -386 145t-134 410q0 266 104.5 488t284.5 341t402 119q177 0 307 -68l-45 -90q-55 30 -124.5 47t-137.5 17zM1171 1579h-49 q-70 60 -161 207q-55 -57 -125 -114.5t-125 -92.5h-54v29q68 56 157.5 148.5t127.5 150.5h64q23 -64 72.5 -152.5t92.5 -146.5v-29z" />
<glyph unicode="&#x109;" horiz-adv-x="887" d="M477 -20q-174 0 -274.5 110.5t-100.5 306.5q0 193 73.5 361.5t198.5 257t290 88.5q134 0 241 -43l-28 -90q-107 47 -218 47q-129 0 -232.5 -77t-162.5 -222t-59 -320q0 -158 73.5 -243.5t208.5 -85.5q71 0 131.5 13t131.5 46v-92q-116 -57 -273 -57zM908 1241h-49 q-70 60 -161 207q-55 -57 -125 -114.5t-125 -92.5h-54v29q68 56 157.5 148.5t127.5 150.5h64q23 -64 72.5 -152.5t92.5 -146.5v-29z" />
<glyph unicode="&#x10a;" horiz-adv-x="1169" d="M961 1389q-197 0 -351.5 -104.5t-245 -304.5t-90.5 -441q0 -225 110.5 -346t317.5 -121q140 0 304 51v-94q-156 -49 -316 -49q-252 0 -386 145t-134 410q0 266 104.5 488t284.5 341t402 119q177 0 307 -68l-45 -90q-55 30 -124.5 47t-137.5 17zM848 1704q0 56 21.5 88.5 t60.5 32.5q57 0 57 -72q0 -58 -22.5 -90.5t-57.5 -32.5q-59 0 -59 74z" />
<glyph unicode="&#x10b;" horiz-adv-x="887" d="M477 -20q-174 0 -274.5 110.5t-100.5 306.5q0 193 73.5 361.5t198.5 257t290 88.5q134 0 241 -43l-28 -90q-107 47 -218 47q-129 0 -232.5 -77t-162.5 -222t-59 -320q0 -158 73.5 -243.5t208.5 -85.5q71 0 131.5 13t131.5 46v-92q-116 -57 -273 -57zM643 1366 q0 56 21.5 88.5t60.5 32.5q57 0 57 -72q0 -58 -22.5 -90.5t-57.5 -32.5q-59 0 -59 74z" />
<glyph unicode="&#x10c;" horiz-adv-x="1169" d="M961 1389q-197 0 -351.5 -104.5t-245 -304.5t-90.5 -441q0 -225 110.5 -346t317.5 -121q140 0 304 51v-94q-156 -49 -316 -49q-252 0 -386 145t-134 410q0 266 104.5 488t284.5 341t402 119q177 0 307 -68l-45 -90q-55 30 -124.5 47t-137.5 17zM680 1907h49 q72 -61 162 -207q55 57 125 114.5t125 92.5h53v-29q-68 -55 -155.5 -146t-129.5 -153h-63q-29 74 -76.5 158t-89.5 141v29z" />
<glyph unicode="&#x10d;" horiz-adv-x="887" d="M477 -20q-174 0 -274.5 110.5t-100.5 306.5q0 193 73.5 361.5t198.5 257t290 88.5q134 0 241 -43l-28 -90q-107 47 -218 47q-129 0 -232.5 -77t-162.5 -222t-59 -320q0 -158 73.5 -243.5t208.5 -85.5q71 0 131.5 13t131.5 46v-92q-116 -57 -273 -57zM449 1569h49 q72 -61 162 -207q55 57 125 114.5t125 92.5h53v-29q-68 -55 -155.5 -146t-129.5 -153h-63q-29 74 -76.5 158t-89.5 141v29z" />
<glyph unicode="&#x10e;" horiz-adv-x="1350" d="M1288 879q0 -253 -109.5 -461.5t-300.5 -313t-446 -104.5h-330l310 1462h305q282 0 426.5 -147.5t144.5 -435.5zM430 90q226 0 394.5 94.5t261 275.5t92.5 412q0 498 -476 498h-206l-275 -1280h209zM608 1907h49q72 -61 162 -207q55 57 125 114.5t125 92.5h53v-29 q-68 -55 -155.5 -146t-129.5 -153h-63q-29 74 -76.5 158t-89.5 141v29z" />
<glyph unicode="&#x10f;" horiz-adv-x="1133" d="M655 1104q230 0 279 -219h4q12 66 143 671h99l-330 -1556h-82l45 274h-6q-173 -294 -424 -294q-281 0 -281 374q0 193 71.5 370t197.5 278.5t284 101.5zM406 70q89 0 178.5 62.5t160 168t106.5 231t36 209.5q0 126 -61.5 201.5t-168.5 75.5q-124 0 -224 -83t-164 -242.5 t-64 -327.5q0 -295 201 -295zM1257 1255q36 46 88 146.5t72 154.5h96v-20q-9 -39 -79.5 -146t-128.5 -161h-48v26z" />
<glyph unicode="&#x110;" horiz-adv-x="1352" d="M1288 879q0 -253 -109.5 -461.5t-300.5 -313t-446 -104.5h-330l144 676h-156l21 96h155l146 690h305q282 0 426.5 -147.5t144.5 -435.5zM430 90q226 0 394.5 94.5t261 275.5t92.5 412q0 498 -476 498h-206l-129 -598h378l-20 -96h-379l-125 -586h209z" />
<glyph unicode="&#x111;" horiz-adv-x="1163" d="M655 1104q227 0 279 -219h4q7 42 82 387h-404l21 84h401l43 200h99l-43 -200h157l-20 -84h-154l-270 -1272h-82l45 274h-6q-173 -294 -424 -294q-281 0 -281 374q0 193 71.5 370t197.5 278.5t284 101.5zM406 70q89 0 178.5 62.5t160 168t106.5 231t36 209.5 q0 126 -61.5 201.5t-168.5 75.5q-124 0 -224 -83t-164 -242.5t-64 -327.5q0 -295 201 -295z" />
<glyph unicode="&#x112;" horiz-adv-x="1067" d="M829 0h-727l310 1462h727l-21 -94h-624l-117 -553h590l-21 -94h-588l-135 -627h627zM543 1671h508l-18 -88h-508z" />
<glyph unicode="&#x113;" horiz-adv-x="928" d="M469 -20q-173 0 -270 109.5t-97 305.5q0 181 71 347t195.5 264t274.5 98q114 0 182 -61t68 -166q0 -181 -163.5 -276t-485.5 -95h-33q-6 -44 -6 -98q0 -165 74 -251.5t213 -86.5q132 0 276 73v-94q-140 -69 -299 -69zM631 1018q-131 0 -243.5 -115.5t-162.5 -308.5h49 q517 0 517 270q0 67 -43.5 110.5t-116.5 43.5zM419 1333h508l-18 -88h-508z" />
<glyph unicode="&#x114;" horiz-adv-x="1067" d="M829 0h-727l310 1462h727l-21 -94h-624l-117 -553h590l-21 -94h-588l-135 -627h627zM1088 1819q-29 -120 -101 -177t-192 -57q-105 0 -163 50.5t-58 142.5v21l2 20h69q0 -68 36 -103t122 -35q85 0 136.5 30.5t76.5 107.5h72z" />
<glyph unicode="&#x115;" horiz-adv-x="928" d="M469 -20q-173 0 -270 109.5t-97 305.5q0 181 71 347t195.5 264t274.5 98q114 0 182 -61t68 -166q0 -181 -163.5 -276t-485.5 -95h-33q-6 -44 -6 -98q0 -165 74 -251.5t213 -86.5q132 0 276 73v-94q-140 -69 -299 -69zM631 1018q-131 0 -243.5 -115.5t-162.5 -308.5h49 q517 0 517 270q0 67 -43.5 110.5t-116.5 43.5zM946 1481q-29 -120 -101 -177t-192 -57q-105 0 -163 50.5t-58 142.5v21l2 20h69q0 -68 36 -103t122 -35q85 0 136.5 30.5t76.5 107.5h72z" />
<glyph unicode="&#x116;" horiz-adv-x="1067" d="M829 0h-727l310 1462h727l-21 -94h-624l-117 -553h590l-21 -94h-588l-135 -627h627zM734 1675q0 56 21.5 88.5t60.5 32.5q57 0 57 -72q0 -58 -22.5 -90.5t-57.5 -32.5q-59 0 -59 74z" />
<glyph unicode="&#x117;" horiz-adv-x="928" d="M469 -20q-173 0 -270 109.5t-97 305.5q0 181 71 347t195.5 264t274.5 98q114 0 182 -61t68 -166q0 -181 -163.5 -276t-485.5 -95h-33q-6 -44 -6 -98q0 -165 74 -251.5t213 -86.5q132 0 276 73v-94q-140 -69 -299 -69zM631 1018q-131 0 -243.5 -115.5t-162.5 -308.5h49 q517 0 517 270q0 67 -43.5 110.5t-116.5 43.5zM574 1366q0 56 21.5 88.5t60.5 32.5q57 0 57 -72q0 -58 -22.5 -90.5t-57.5 -32.5q-59 0 -59 74z" />
<glyph unicode="&#x118;" horiz-adv-x="1067" d="M829 0h-727l310 1462h727l-21 -94h-624l-117 -553h590l-21 -94h-588l-135 -627h627zM742 0l-75 -60q-61 -47 -91.5 -95t-30.5 -101q0 -82 88 -82q33 0 76 10v-71q-41 -15 -98 -15q-75 0 -116.5 38t-41.5 108q0 69 48 132.5t169 135.5h72z" />
<glyph unicode="&#x119;" horiz-adv-x="928" d="M469 -20q-173 0 -270 109.5t-97 305.5q0 181 71 347t195.5 264t274.5 98q114 0 182 -61t68 -166q0 -181 -163.5 -276t-485.5 -95h-33q-6 -44 -6 -98q0 -165 74 -251.5t213 -86.5q132 0 276 73v-94q-140 -69 -299 -69zM631 1018q-131 0 -243.5 -115.5t-162.5 -308.5h49 q517 0 517 270q0 67 -43.5 110.5t-116.5 43.5zM699 31l-75 -60q-61 -47 -91.5 -95t-30.5 -101q0 -82 88 -82q33 0 76 10v-71q-41 -15 -98 -15q-75 0 -116.5 38t-41.5 108q0 69 48 132.5t169 135.5h72z" />
<glyph unicode="&#x11a;" horiz-adv-x="1067" d="M829 0h-727l310 1462h727l-21 -94h-624l-117 -553h590l-21 -94h-588l-135 -627h627zM582 1907h49q72 -61 162 -207q55 57 125 114.5t125 92.5h53v-29q-68 -55 -155.5 -146t-129.5 -153h-63q-29 74 -76.5 158t-89.5 141v29z" />
<glyph unicode="&#x11b;" horiz-adv-x="928" d="M469 -20q-173 0 -270 109.5t-97 305.5q0 181 71 347t195.5 264t274.5 98q114 0 182 -61t68 -166q0 -181 -163.5 -276t-485.5 -95h-33q-6 -44 -6 -98q0 -165 74 -251.5t213 -86.5q132 0 276 73v-94q-140 -69 -299 -69zM631 1018q-131 0 -243.5 -115.5t-162.5 -308.5h49 q517 0 517 270q0 67 -43.5 110.5t-116.5 43.5zM445 1569h49q72 -61 162 -207q55 57 125 114.5t125 92.5h53v-29q-68 -55 -155.5 -146t-129.5 -153h-63q-29 74 -76.5 158t-89.5 141v29z" />
<glyph unicode="&#x11c;" horiz-adv-x="1374" d="M856 735h406l-150 -682q-211 -73 -405 -73q-257 0 -397 146t-140 421q0 265 105 483.5t283.5 335.5t395.5 117q113 0 203 -19t184 -59l-38 -94q-110 46 -189.5 62t-167.5 16q-184 0 -339 -107.5t-244 -301.5t-89 -433q0 -229 114.5 -352t326.5 -123q155 0 309 47l117 526 h-303zM1177 1579h-49q-70 60 -161 207q-55 -57 -125 -114.5t-125 -92.5h-54v29q68 56 157.5 148.5t127.5 150.5h64q23 -64 72.5 -152.5t92.5 -146.5v-29z" />
<glyph unicode="&#x11d;" horiz-adv-x="1040" d="M1100 1087l-17 -79l-243 -11q26 -28 43.5 -84t17.5 -114q0 -109 -54.5 -206.5t-148 -145.5t-213.5 -48q-63 0 -77 9q-80 -33 -124 -73t-44 -81t31.5 -64.5t113.5 -31.5l121 -11q346 -31 346 -264q0 -112 -65 -197.5t-187 -131.5t-291 -46q-186 0 -291.5 72t-105.5 203 q0 236 309 334q-78 42 -78 123q0 123 191 202q-71 36 -110.5 105.5t-39.5 157.5q0 111 53.5 204t148 146t206.5 53q69 0 147 -21h361zM14 -207q0 -101 81 -150t224 -49q203 0 317 74.5t114 204.5q0 85 -62.5 130.5t-218.5 57.5l-160 15q-157 -45 -226 -114.5t-69 -168.5z M285 711q0 -112 58.5 -170t164.5 -58q88 0 154 37t102.5 114t36.5 169q0 104 -56 161.5t-157 57.5q-93 0 -161 -43t-105 -116t-37 -152zM898 1241h-49q-70 60 -161 207q-55 -57 -125 -114.5t-125 -92.5h-54v29q68 56 157.5 148.5t127.5 150.5h64q23 -64 72.5 -152.5 t92.5 -146.5v-29z" />
<glyph unicode="&#x11e;" horiz-adv-x="1374" d="M856 735h406l-150 -682q-211 -73 -405 -73q-257 0 -397 146t-140 421q0 265 105 483.5t283.5 335.5t395.5 117q113 0 203 -19t184 -59l-38 -94q-110 46 -189.5 62t-167.5 16q-184 0 -339 -107.5t-244 -301.5t-89 -433q0 -229 114.5 -352t326.5 -123q155 0 309 47l117 526 h-303zM1217 1819q-29 -120 -101 -177t-192 -57q-105 0 -163 50.5t-58 142.5v21l2 20h69q0 -68 36 -103t122 -35q85 0 136.5 30.5t76.5 107.5h72z" />
<glyph unicode="&#x11f;" horiz-adv-x="1040" d="M1100 1087l-17 -79l-243 -11q26 -28 43.5 -84t17.5 -114q0 -109 -54.5 -206.5t-148 -145.5t-213.5 -48q-63 0 -77 9q-80 -33 -124 -73t-44 -81t31.5 -64.5t113.5 -31.5l121 -11q346 -31 346 -264q0 -112 -65 -197.5t-187 -131.5t-291 -46q-186 0 -291.5 72t-105.5 203 q0 236 309 334q-78 42 -78 123q0 123 191 202q-71 36 -110.5 105.5t-39.5 157.5q0 111 53.5 204t148 146t206.5 53q69 0 147 -21h361zM14 -207q0 -101 81 -150t224 -49q203 0 317 74.5t114 204.5q0 85 -62.5 130.5t-218.5 57.5l-160 15q-157 -45 -226 -114.5t-69 -168.5z M285 711q0 -112 58.5 -170t164.5 -58q88 0 154 37t102.5 114t36.5 169q0 104 -56 161.5t-157 57.5q-93 0 -161 -43t-105 -116t-37 -152zM921 1481q-29 -120 -101 -177t-192 -57q-105 0 -163 50.5t-58 142.5v21l2 20h69q0 -68 36 -103t122 -35q85 0 136.5 30.5t76.5 107.5h72 z" />
<glyph unicode="&#x120;" horiz-adv-x="1374" d="M856 735h406l-150 -682q-211 -73 -405 -73q-257 0 -397 146t-140 421q0 265 105 483.5t283.5 335.5t395.5 117q113 0 203 -19t184 -59l-38 -94q-110 46 -189.5 62t-167.5 16q-184 0 -339 -107.5t-244 -301.5t-89 -433q0 -229 114.5 -352t326.5 -123q155 0 309 47l117 526 h-303zM869 1704q0 56 21.5 88.5t60.5 32.5q57 0 57 -72q0 -58 -22.5 -90.5t-57.5 -32.5q-59 0 -59 74z" />
<glyph unicode="&#x121;" horiz-adv-x="1040" d="M1100 1087l-17 -79l-243 -11q26 -28 43.5 -84t17.5 -114q0 -109 -54.5 -206.5t-148 -145.5t-213.5 -48q-63 0 -77 9q-80 -33 -124 -73t-44 -81t31.5 -64.5t113.5 -31.5l121 -11q346 -31 346 -264q0 -112 -65 -197.5t-187 -131.5t-291 -46q-186 0 -291.5 72t-105.5 203 q0 236 309 334q-78 42 -78 123q0 123 191 202q-71 36 -110.5 105.5t-39.5 157.5q0 111 53.5 204t148 146t206.5 53q69 0 147 -21h361zM14 -207q0 -101 81 -150t224 -49q203 0 317 74.5t114 204.5q0 85 -62.5 130.5t-218.5 57.5l-160 15q-157 -45 -226 -114.5t-69 -168.5z M285 711q0 -112 58.5 -170t164.5 -58q88 0 154 37t102.5 114t36.5 169q0 104 -56 161.5t-157 57.5q-93 0 -161 -43t-105 -116t-37 -152zM605 1366q0 56 21.5 88.5t60.5 32.5q57 0 57 -72q0 -58 -22.5 -90.5t-57.5 -32.5q-59 0 -59 74z" />
<glyph unicode="&#x122;" horiz-adv-x="1374" d="M856 735h406l-150 -682q-211 -73 -405 -73q-257 0 -397 146t-140 421q0 265 105 483.5t283.5 335.5t395.5 117q113 0 203 -19t184 -59l-38 -94q-110 46 -189.5 62t-167.5 16q-184 0 -339 -107.5t-244 -301.5t-89 -433q0 -229 114.5 -352t326.5 -123q155 0 309 47l117 526 h-303zM461 -426q34 44 85.5 142t74.5 159h96v-20q-9 -40 -78.5 -145.5t-130.5 -162.5h-47v27z" />
<glyph unicode="&#x123;" horiz-adv-x="1040" d="M1100 1087l-17 -79l-243 -11q26 -28 43.5 -84t17.5 -114q0 -109 -54.5 -206.5t-148 -145.5t-213.5 -48q-63 0 -77 9q-80 -33 -124 -73t-44 -81t31.5 -64.5t113.5 -31.5l121 -11q346 -31 346 -264q0 -112 -65 -197.5t-187 -131.5t-291 -46q-186 0 -291.5 72t-105.5 203 q0 236 309 334q-78 42 -78 123q0 123 191 202q-71 36 -110.5 105.5t-39.5 157.5q0 111 53.5 204t148 146t206.5 53q69 0 147 -21h361zM14 -207q0 -101 81 -150t224 -49q203 0 317 74.5t114 204.5q0 85 -62.5 130.5t-218.5 57.5l-160 15q-157 -45 -226 -114.5t-69 -168.5z M285 711q0 -112 58.5 -170t164.5 -58q88 0 154 37t102.5 114t36.5 169q0 104 -56 161.5t-157 57.5q-93 0 -161 -43t-105 -116t-37 -152zM835 1542q-34 -44 -85.5 -142t-74.5 -159h-96v21q8 38 77 143t132 164h47v-27z" />
<glyph unicode="&#x124;" horiz-adv-x="1366" d="M1063 0h-100l151 719h-760l-149 -719h-103l310 1462h102l-139 -649h760l137 649h100zM1148 1579h-49q-70 60 -161 207q-55 -57 -125 -114.5t-125 -92.5h-54v29q68 56 157.5 148.5t127.5 150.5h64q23 -64 72.5 -152.5t92.5 -146.5v-29z" />
<glyph unicode="&#x125;" horiz-adv-x="1143" d="M764 0l149 692q21 92 21 156q0 80 -43.5 125t-134.5 45q-112 0 -210.5 -67t-166 -188t-103.5 -286l-102 -477h-98l332 1556h96l-86 -411q-44 -200 -66 -279h6q78 113 186.5 175.5t229.5 62.5q124 0 192 -65t68 -183q0 -70 -24 -182l-148 -674h-98zM999 1634h-49 q-70 60 -161 207q-55 -57 -125 -114.5t-125 -92.5h-54v29q68 56 157.5 148.5t127.5 150.5h64q23 -64 72.5 -152.5t92.5 -146.5v-29z" />
<glyph unicode="&#x126;" horiz-adv-x="1366" d="M1313 1184h198l-20 -90h-197l-231 -1094h-100l151 719h-760l-149 -719h-103l232 1094h-193l21 90h190l60 278h102l-59 -278h757l60 278h100zM1135 813l59 281h-760l-59 -281h760z" />
<glyph unicode="&#x127;" horiz-adv-x="1153" d="M760 0l153 698q21 101 21 156q0 81 -48 122.5t-134 41.5q-171 0 -298.5 -141.5t-179.5 -395.5l-100 -481h-98l272 1282h-143l16 78h144l41 196h98l-41 -196h373l-17 -78h-373q-68 -315 -94 -408h10q93 124 191 177t215 53q129 0 197.5 -62t68.5 -182q0 -62 -22 -170 l-150 -690h-102z" />
<glyph unicode="&#x128;" horiz-adv-x="504" d="M102 0l310 1462h98l-309 -1462h-99zM639 1587q-40 0 -77.5 19t-75.5 45q-34 23 -64.5 41t-68.5 18q-45 0 -74 -28.5t-51 -100.5h-74q19 108 71 166.5t134 58.5q41 0 73.5 -14t117.5 -72q52 -36 94 -36q43 0 71.5 30.5t46.5 100.5h76q-26 -118 -74.5 -173t-124.5 -55z" />
<glyph unicode="&#x129;" horiz-adv-x="475" d="M174 0h-98l231 1087h96zM551 1249q-40 0 -77.5 19t-75.5 45q-34 23 -64.5 41t-68.5 18q-45 0 -74 -28.5t-51 -100.5h-74q19 108 71 166.5t134 58.5q41 0 73.5 -14t117.5 -72q52 -36 94 -36q43 0 71.5 30.5t46.5 100.5h76q-26 -118 -74.5 -173t-124.5 -55z" />
<glyph unicode="&#x12a;" horiz-adv-x="504" d="M102 0l310 1462h98l-309 -1462h-99zM232 1671h508l-18 -88h-508z" />
<glyph unicode="&#x12b;" horiz-adv-x="475" d="M174 0h-98l231 1087h96zM150 1333h508l-18 -88h-508z" />
<glyph unicode="&#x12c;" horiz-adv-x="504" d="M102 0l310 1462h98l-309 -1462h-99zM769 1819q-29 -120 -101 -177t-192 -57q-105 0 -163 50.5t-58 142.5v21l2 20h69q0 -68 36 -103t122 -35q85 0 136.5 30.5t76.5 107.5h72z" />
<glyph unicode="&#x12d;" horiz-adv-x="475" d="M174 0h-98l231 1087h96zM673 1481q-29 -120 -101 -177t-192 -57q-105 0 -163 50.5t-58 142.5v21l2 20h69q0 -68 36 -103t122 -35q85 0 136.5 30.5t76.5 107.5h72z" />
<glyph unicode="&#x12e;" horiz-adv-x="504" d="M102 0l310 1462h98l-309 -1462h-99zM201 0l-75 -60q-61 -47 -91.5 -95t-30.5 -101q0 -82 88 -82q33 0 76 10v-71q-41 -15 -98 -15q-75 0 -116.5 38t-41.5 108q0 69 48 132.5t169 135.5h72z" />
<glyph unicode="&#x12f;" horiz-adv-x="475" d="M174 0h-98l231 1087h96zM350 1366q0 55 22 88t60 33q57 0 57 -72q0 -57 -22 -90t-57 -33q-29 0 -44.5 19.5t-15.5 54.5zM174 0l-75 -60q-61 -47 -91.5 -95t-30.5 -101q0 -82 88 -82q33 0 76 10v-71q-41 -15 -98 -15q-75 0 -116.5 38t-41.5 108q0 69 48 132.5t169 135.5 h72z" />
<glyph unicode="&#x130;" horiz-adv-x="504" d="M102 0l310 1462h98l-309 -1462h-99zM439 1704q0 56 21.5 88.5t60.5 32.5q57 0 57 -72q0 -58 -22.5 -90.5t-57.5 -32.5q-59 0 -59 74z" />
<glyph unicode="&#x131;" horiz-adv-x="475" d="M174 0h-98l231 1087h96z" />
<glyph unicode="&#x132;" horiz-adv-x="997" d="M102 0l310 1462h98l-309 -1462h-99zM324 -360q-48 0 -88 8t-56 16l11 92q57 -20 137 -20q213 0 262 241l309 1485h105l-314 -1491q-35 -170 -125 -250.5t-241 -80.5z" />
<glyph unicode="&#x133;" horiz-adv-x="950" d="M171 0h-98l231 1087h96zM347 1366q0 55 22 88t60 33q57 0 57 -72q0 -57 -22 -90t-57 -33q-29 0 -44.5 19.5t-15.5 54.5zM305 -492q-62 0 -113 19v92q47 -22 113 -22q82 0 128.5 51.5t72.5 177.5l266 1261h96l-268 -1271q-35 -165 -106.5 -236.5t-188.5 -71.5zM821 1366 q0 55 22 88t60 33q57 0 57 -72q0 -57 -22 -90t-57 -33q-29 0 -44.5 19.5t-15.5 54.5z" />
<glyph unicode="&#x134;" horiz-adv-x="477" d="M-180 -360q-48 0 -88 8t-56 16l11 92q57 -20 137 -20q213 0 262 241l309 1485h105l-314 -1491q-35 -170 -125 -250.5t-241 -80.5zM726 1579h-49q-70 60 -161 207q-55 -57 -125 -114.5t-125 -92.5h-54v29q68 56 157.5 148.5t127.5 150.5h64q23 -64 72.5 -152.5 t92.5 -146.5v-29z" />
<glyph unicode="&#x135;" horiz-adv-x="475" d="M-166 -492q-62 0 -113 19v92q47 -22 113 -22q82 0 128.5 51.5t72.5 177.5l266 1261h96l-268 -1271q-35 -165 -106.5 -236.5t-188.5 -71.5zM625 1241h-49q-70 60 -161 207q-55 -57 -125 -114.5t-125 -92.5h-54v29q68 56 157.5 148.5t127.5 150.5h64q23 -64 72.5 -152.5 t92.5 -146.5v-29z" />
<glyph unicode="&#x136;" horiz-adv-x="1122" d="M979 0h-111l-342 788l-190 -153l-131 -635h-103l310 1462h102l-158 -723l133 121l680 602h138l-699 -610zM297 -426q34 44 85.5 142t74.5 159h96v-20q-9 -40 -78.5 -145.5t-130.5 -162.5h-47v27z" />
<glyph unicode="&#x137;" horiz-adv-x="944" d="M270 477l609 610h125l-474 -469l297 -618h-106l-264 559l-205 -188l-80 -371h-96l330 1556h96l-166 -780l-70 -299h4zM217 -426q34 44 85.5 142t74.5 159h96v-20q-9 -40 -78.5 -145.5t-130.5 -162.5h-47v27z" />
<glyph unicode="&#x138;" horiz-adv-x="944" d="M270 477l609 610h125l-474 -469l297 -618h-106l-264 559l-205 -188l-80 -371h-96l229 1087h96l-65 -311l-70 -299h4z" />
<glyph unicode="&#x139;" horiz-adv-x="938" d="M102 0l310 1462h102l-289 -1366h621l-23 -96h-721zM415 1600q66 51 150.5 142t129.5 165h137v-23q-51 -66 -157.5 -158.5t-192.5 -146.5h-67v21z" />
<glyph unicode="&#x13a;" horiz-adv-x="475" d="M170 0h-94l334 1556h94zM403 1657q66 51 150.5 142t129.5 165h137v-23q-51 -66 -157.5 -158.5t-192.5 -146.5h-67v21z" />
<glyph unicode="&#x13b;" horiz-adv-x="938" d="M102 0l310 1462h102l-289 -1366h621l-23 -96h-721zM291 -426q34 44 85.5 142t74.5 159h96v-20q-9 -40 -78.5 -145.5t-130.5 -162.5h-47v27z" />
<glyph unicode="&#x13c;" horiz-adv-x="475" d="M170 0h-94l334 1556h94zM-81 -426q34 44 85.5 142t74.5 159h96v-20q-9 -40 -78.5 -145.5t-130.5 -162.5h-47v27z" />
<glyph unicode="&#x13d;" horiz-adv-x="938" d="M102 0l310 1462h102l-289 -1366h621l-23 -96h-721zM765 1162q36 46 88 146.5t72 154.5h96v-20q-9 -39 -79.5 -146t-128.5 -161h-48v26z" />
<glyph unicode="&#x13e;" horiz-adv-x="475" d="M170 0h-94l334 1556h94zM595 1255q36 46 88 146.5t72 154.5h96v-20q-9 -39 -79.5 -146t-128.5 -161h-48v26z" />
<glyph unicode="&#x13f;" horiz-adv-x="938" d="M102 0l310 1462h102l-289 -1366h621l-23 -96h-721zM684 718q0 56 21.5 88.5t60.5 32.5q57 0 57 -72q0 -58 -22.5 -90.5t-57.5 -32.5q-59 0 -59 74z" />
<glyph unicode="&#x140;" horiz-adv-x="418" d="M163 0h-94l334 1556h94zM443 761q0 56 21.5 88.5t60.5 32.5q57 0 57 -72q0 -58 -22.5 -90.5t-57.5 -32.5q-59 0 -59 74z" />
<glyph unicode="&#x141;" horiz-adv-x="922" d="M100 0l113 524l-135 -80l-39 78l199 119l174 821h102l-160 -755l285 170l43 -76l-354 -213l-103 -492h621l-23 -96h-723z" />
<glyph unicode="&#x142;" horiz-adv-x="430" d="M350 836l182 104l41 -72l-247 -141l-156 -727h-94l141 664l-170 -99l-37 72l230 135l170 784h94z" />
<glyph unicode="&#x143;" horiz-adv-x="1372" d="M1069 0h-86l-516 1284h-8q-23 -149 -48 -273t-214 -1011h-95l310 1462h80l522 -1294h8q23 176 74 416l188 878h94zM844 1600q66 51 150.5 142t129.5 165h137v-23q-51 -66 -157.5 -158.5t-192.5 -146.5h-67v21z" />
<glyph unicode="&#x144;" horiz-adv-x="1143" d="M764 0l149 692q21 92 21 156q0 80 -43.5 125t-134.5 45q-112 0 -210.5 -67t-166 -187.5t-103.5 -286.5l-102 -477h-98l231 1087h82l-37 -221h6q164 238 416 238q130 0 195 -64t65 -184q0 -70 -24 -182l-148 -674h-98zM666 1262q66 51 150.5 142t129.5 165h137v-23 q-51 -66 -157.5 -158.5t-192.5 -146.5h-67v21z" />
<glyph unicode="&#x145;" horiz-adv-x="1372" d="M1069 0h-86l-516 1284h-8q-23 -149 -48 -273t-214 -1011h-95l310 1462h80l522 -1294h8q23 176 74 416l188 878h94zM387 -426q34 44 85.5 142t74.5 159h96v-20q-9 -40 -78.5 -145.5t-130.5 -162.5h-47v27z" />
<glyph unicode="&#x146;" horiz-adv-x="1143" d="M764 0l149 692q21 92 21 156q0 80 -43.5 125t-134.5 45q-112 0 -210.5 -67t-166 -187.5t-103.5 -286.5l-102 -477h-98l231 1087h82l-37 -221h6q164 238 416 238q130 0 195 -64t65 -184q0 -70 -24 -182l-148 -674h-98zM258 -426q34 44 85.5 142t74.5 159h96v-20 q-9 -40 -78.5 -145.5t-130.5 -162.5h-47v27z" />
<glyph unicode="&#x147;" horiz-adv-x="1372" d="M1069 0h-86l-516 1284h-8q-23 -149 -48 -273t-214 -1011h-95l310 1462h80l522 -1294h8q23 176 74 416l188 878h94zM711 1907h49q72 -61 162 -207q55 57 125 114.5t125 92.5h53v-29q-68 -55 -155.5 -146t-129.5 -153h-63q-29 74 -76.5 158t-89.5 141v29z" />
<glyph unicode="&#x148;" horiz-adv-x="1143" d="M764 0l149 692q21 92 21 156q0 80 -43.5 125t-134.5 45q-112 0 -210.5 -67t-166 -187.5t-103.5 -286.5l-102 -477h-98l231 1087h82l-37 -221h6q164 238 416 238q130 0 195 -64t65 -184q0 -70 -24 -182l-148 -674h-98zM507 1569h49q72 -61 162 -207q55 57 125 114.5 t125 92.5h53v-29q-68 -55 -155.5 -146t-129.5 -153h-63q-29 74 -76.5 158t-89.5 141v29z" />
<glyph unicode="&#x149;" horiz-adv-x="1282" d="M481 1462l4 -22q-43 -105 -117.5 -235.5t-158.5 -243.5h-74q66 106 129.5 242.5t103.5 258.5h113zM889 0l149 692q21 92 21 156q0 80 -43.5 125t-134.5 45q-112 0 -210.5 -67t-166 -187.5t-103.5 -286.5l-102 -477h-98l231 1087h82l-37 -221h6q164 238 416 238 q130 0 195 -64t65 -184q0 -70 -24 -182l-148 -674h-98z" />
<glyph unicode="&#x14a;" horiz-adv-x="1380" d="M696 -360q-37 0 -83 8.5t-60 15.5l10 92q58 -20 137 -20q113 0 175.5 65t97.5 222l-506 1261h-8q-23 -149 -48 -273t-214 -1011h-95l310 1462h80l522 -1294h8q23 176 74 416l188 878h94l-305 -1444q-41 -196 -130.5 -287t-246.5 -91z" />
<glyph unicode="&#x14b;" horiz-adv-x="1153" d="M528 -492q-65 0 -112 19v92q47 -22 112 -22q82 0 127.5 51t71.5 178l186 866q21 92 21 156q0 80 -43.5 125t-134.5 45q-112 0 -210.5 -67t-166 -187.5t-103.5 -286.5l-102 -477h-98l231 1087h82l-37 -221h6q164 238 416 238q130 0 195 -64t65 -184q0 -70 -24 -182 l-187 -858q-35 -165 -106.5 -236.5t-188.5 -71.5z" />
<glyph unicode="&#x14c;" horiz-adv-x="1464" d="M1403 911q0 -255 -94 -481.5t-252 -338t-365 -111.5q-250 0 -385 149t-135 430q0 262 93 477.5t255 331t373 115.5q247 0 378.5 -148.5t131.5 -423.5zM879 1389q-174 0 -308.5 -101t-214.5 -298t-80 -417q0 -245 109.5 -373t319.5 -128q169 0 300 98.5t210 300t79 430.5 q0 240 -104.5 364t-310.5 124zM665 1671h508l-18 -88h-508z" />
<glyph unicode="&#x14d;" horiz-adv-x="1124" d="M649 1108q180 0 278.5 -108.5t98.5 -299.5q0 -197 -71.5 -368.5t-195.5 -261.5t-286 -90q-184 0 -279.5 109.5t-95.5 313.5q0 191 73 358t197 257t281 90zM641 1022q-124 0 -223 -78.5t-158 -225t-59 -310.5q0 -342 282 -342q127 0 225.5 77.5t157 228t58.5 330.5 q0 154 -73 237t-210 83zM436 1333h508l-18 -88h-508z" />
<glyph unicode="&#x14e;" horiz-adv-x="1464" d="M1403 911q0 -255 -94 -481.5t-252 -338t-365 -111.5q-250 0 -385 149t-135 430q0 262 93 477.5t255 331t373 115.5q247 0 378.5 -148.5t131.5 -423.5zM879 1389q-174 0 -308.5 -101t-214.5 -298t-80 -417q0 -245 109.5 -373t319.5 -128q169 0 300 98.5t210 300t79 430.5 q0 240 -104.5 364t-310.5 124zM1184 1819q-29 -120 -101 -177t-192 -57q-105 0 -163 50.5t-58 142.5v21l2 20h69q0 -68 36 -103t122 -35q85 0 136.5 30.5t76.5 107.5h72z" />
<glyph unicode="&#x14f;" horiz-adv-x="1124" d="M649 1108q180 0 278.5 -108.5t98.5 -299.5q0 -197 -71.5 -368.5t-195.5 -261.5t-286 -90q-184 0 -279.5 109.5t-95.5 313.5q0 191 73 358t197 257t281 90zM641 1022q-124 0 -223 -78.5t-158 -225t-59 -310.5q0 -342 282 -342q127 0 225.5 77.5t157 228t58.5 330.5 q0 154 -73 237t-210 83zM958 1481q-29 -120 -101 -177t-192 -57q-105 0 -163 50.5t-58 142.5v21l2 20h69q0 -68 36 -103t122 -35q85 0 136.5 30.5t76.5 107.5h72z" />
<glyph unicode="&#x150;" horiz-adv-x="1464" d="M1403 911q0 -255 -94 -481.5t-252 -338t-365 -111.5q-250 0 -385 149t-135 430q0 262 93 477.5t255 331t373 115.5q247 0 378.5 -148.5t131.5 -423.5zM879 1389q-174 0 -308.5 -101t-214.5 -298t-80 -417q0 -245 109.5 -373t319.5 -128q169 0 300 98.5t210 300t79 430.5 q0 240 -104.5 364t-310.5 124zM756 1608q48 49 112 132t115 167h103v-23q-59 -80 -145 -170.5t-146 -134.5h-39v29zM1069 1608q41 44 107.5 129.5t119.5 169.5h103v-23q-61 -82 -146.5 -171.5t-146.5 -133.5h-37v29z" />
<glyph unicode="&#x151;" horiz-adv-x="1124" d="M649 1108q180 0 278.5 -108.5t98.5 -299.5q0 -197 -71.5 -368.5t-195.5 -261.5t-286 -90q-184 0 -279.5 109.5t-95.5 313.5q0 191 73 358t197 257t281 90zM641 1022q-124 0 -223 -78.5t-158 -225t-59 -310.5q0 -342 282 -342q127 0 225.5 77.5t157 228t58.5 330.5 q0 154 -73 237t-210 83zM484 1270q48 49 112 132t115 167h103v-23q-59 -80 -145 -170.5t-146 -134.5h-39v29zM797 1270q41 44 107.5 129.5t119.5 169.5h103v-23q-61 -82 -146.5 -171.5t-146.5 -133.5h-37v29z" />
<glyph unicode="&#x152;" horiz-adv-x="1767" d="M1530 0h-666q-25 -6 -77.5 -13t-94.5 -7q-251 0 -385.5 149.5t-134.5 429.5q0 263 96 482t262 330.5t381 111.5q130 0 240 -21h688l-20 -94h-625l-117 -553h590l-20 -94h-588l-135 -627h626zM705 72q68 0 116 12l271 1290q-110 15 -189 15q-182 0 -321.5 -98.5 t-222.5 -293.5t-83 -424q0 -245 109 -373t320 -128z" />
<glyph unicode="&#x153;" horiz-adv-x="1720" d="M1262 -20q-135 0 -228 69t-125 201q-65 -127 -179 -198.5t-257 -71.5q-184 0 -279.5 109.5t-95.5 313.5q0 191 73 358t197 257t281 90q141 0 237 -74.5t126 -212.5q70 132 182.5 207.5t241.5 75.5q114 0 182 -61t68 -166q0 -181 -163.5 -276t-486.5 -95h-32 q-7 -38 -7 -98q0 -165 74 -251.5t213 -86.5q133 0 277 73v-94q-140 -69 -299 -69zM641 1022q-124 0 -223 -78.5t-158 -225t-59 -310.5q0 -342 282 -342q127 0 225.5 77.5t157 228t58.5 330.5q0 154 -73 237t-210 83zM1423 1018q-131 0 -243 -115t-162 -309h49q516 0 516 270 q0 70 -44.5 112t-115.5 42z" />
<glyph unicode="&#x154;" horiz-adv-x="1145" d="M336 633l-131 -633h-103l310 1462h303q430 0 430 -360q0 -182 -103.5 -303t-281.5 -152q201 -591 221 -647h-111l-211 633h-323zM358 725h252q208 0 317 95.5t109 281.5q0 268 -329 268h-211zM725 1600q66 51 150.5 142t129.5 165h137v-23q-51 -66 -157.5 -158.5 t-192.5 -146.5h-67v21z" />
<glyph unicode="&#x155;" horiz-adv-x="752" d="M713 1106q69 0 123 -14l-21 -93q-47 15 -113 15q-94 0 -179 -64t-153 -192t-100 -277l-100 -481h-98l231 1087h80l-29 -204h6q73 94 123 135.5t106.5 64.5t123.5 23zM466 1262q66 51 150.5 142t129.5 165h137v-23q-51 -66 -157.5 -158.5t-192.5 -146.5h-67v21z" />
<glyph unicode="&#x156;" horiz-adv-x="1145" d="M336 633l-131 -633h-103l310 1462h303q430 0 430 -360q0 -182 -103.5 -303t-281.5 -152q201 -591 221 -647h-111l-211 633h-323zM358 725h252q208 0 317 95.5t109 281.5q0 268 -329 268h-211zM315 -426q34 44 85.5 142t74.5 159h96v-20q-9 -40 -78.5 -145.5 t-130.5 -162.5h-47v27z" />
<glyph unicode="&#x157;" horiz-adv-x="752" d="M713 1106q69 0 123 -14l-21 -93q-47 15 -113 15q-94 0 -179 -64t-153 -192t-100 -277l-100 -481h-98l231 1087h80l-29 -204h6q73 94 123 135.5t106.5 64.5t123.5 23zM-87 -426q34 44 85.5 142t74.5 159h96v-20q-9 -40 -78.5 -145.5t-130.5 -162.5h-47v27z" />
<glyph unicode="&#x158;" horiz-adv-x="1145" d="M336 633l-131 -633h-103l310 1462h303q430 0 430 -360q0 -182 -103.5 -303t-281.5 -152q201 -591 221 -647h-111l-211 633h-323zM358 725h252q208 0 317 95.5t109 281.5q0 268 -329 268h-211zM565 1907h49q72 -61 162 -207q55 57 125 114.5t125 92.5h53v-29 q-68 -55 -155.5 -146t-129.5 -153h-63q-29 74 -76.5 158t-89.5 141v29z" />
<glyph unicode="&#x159;" horiz-adv-x="752" d="M713 1106q69 0 123 -14l-21 -93q-47 15 -113 15q-94 0 -179 -64t-153 -192t-100 -277l-100 -481h-98l231 1087h80l-29 -204h6q73 94 123 135.5t106.5 64.5t123.5 23zM378 1569h49q72 -61 162 -207q55 57 125 114.5t125 92.5h53v-29q-68 -55 -155.5 -146t-129.5 -153h-63 q-29 74 -76.5 158t-89.5 141v29z" />
<glyph unicode="&#x15a;" horiz-adv-x="1020" d="M895 403q0 -126 -65.5 -224.5t-179.5 -148.5t-269 -50q-88 0 -172.5 17t-171.5 58v109q163 -92 348 -92q188 0 295.5 86.5t107.5 232.5q0 61 -17 104.5t-52.5 78.5t-91 68t-131.5 75q-150 76 -209.5 164t-59.5 206t59 207.5t165 139t237 49.5q99 0 180 -17.5t168 -60.5 l-32 -94q-66 40 -151.5 63t-164.5 23q-163 0 -259.5 -82.5t-96.5 -218.5q0 -103 49 -170t182 -133q154 -79 213.5 -130t89 -113t29.5 -147zM643 1600q66 51 150.5 142t129.5 165h137v-23q-51 -66 -157.5 -158.5t-192.5 -146.5h-67v21z" />
<glyph unicode="&#x15b;" horiz-adv-x="827" d="M713 295q0 -144 -103 -229.5t-280 -85.5q-173 0 -305 75v107q74 -46 153 -71t148 -25q138 0 211 57.5t73 163.5q0 42 -15.5 74t-50 61.5t-132.5 85.5q-148 80 -200 145.5t-52 159.5q0 128 98.5 209.5t259.5 81.5q75 0 158.5 -17.5t140.5 -46.5l-35 -88q-136 64 -264 64 q-116 0 -186 -53t-70 -138q0 -55 17 -88t60.5 -68.5t119.5 -76.5q114 -63 161.5 -103.5t70 -86.5t22.5 -107zM452 1262q66 51 150.5 142t129.5 165h137v-23q-51 -66 -157.5 -158.5t-192.5 -146.5h-67v21z" />
<glyph unicode="&#x15c;" horiz-adv-x="1020" d="M895 403q0 -126 -65.5 -224.5t-179.5 -148.5t-269 -50q-88 0 -172.5 17t-171.5 58v109q163 -92 348 -92q188 0 295.5 86.5t107.5 232.5q0 61 -17 104.5t-52.5 78.5t-91 68t-131.5 75q-150 76 -209.5 164t-59.5 206t59 207.5t165 139t237 49.5q99 0 180 -17.5t168 -60.5 l-32 -94q-66 40 -151.5 63t-164.5 23q-163 0 -259.5 -82.5t-96.5 -218.5q0 -103 49 -170t182 -133q154 -79 213.5 -130t89 -113t29.5 -147zM958 1579h-49q-70 60 -161 207q-55 -57 -125 -114.5t-125 -92.5h-54v29q68 56 157.5 148.5t127.5 150.5h64q23 -64 72.5 -152.5 t92.5 -146.5v-29z" />
<glyph unicode="&#x15d;" horiz-adv-x="827" d="M713 295q0 -144 -103 -229.5t-280 -85.5q-173 0 -305 75v107q74 -46 153 -71t148 -25q138 0 211 57.5t73 163.5q0 42 -15.5 74t-50 61.5t-132.5 85.5q-148 80 -200 145.5t-52 159.5q0 128 98.5 209.5t259.5 81.5q75 0 158.5 -17.5t140.5 -46.5l-35 -88q-136 64 -264 64 q-116 0 -186 -53t-70 -138q0 -55 17 -88t60.5 -68.5t119.5 -76.5q114 -63 161.5 -103.5t70 -86.5t22.5 -107zM797 1241h-49q-70 60 -161 207q-55 -57 -125 -114.5t-125 -92.5h-54v29q68 56 157.5 148.5t127.5 150.5h64q23 -64 72.5 -152.5t92.5 -146.5v-29z" />
<glyph unicode="&#x15e;" horiz-adv-x="1020" d="M895 403q0 -126 -65.5 -224.5t-179.5 -148.5t-269 -50q-88 0 -172.5 17t-171.5 58v109q163 -92 348 -92q188 0 295.5 86.5t107.5 232.5q0 61 -17 104.5t-52.5 78.5t-91 68t-131.5 75q-150 76 -209.5 164t-59.5 206t59 207.5t165 139t237 49.5q99 0 180 -17.5t168 -60.5 l-32 -94q-66 40 -151.5 63t-164.5 23q-163 0 -259.5 -82.5t-96.5 -218.5q0 -103 49 -170t182 -133q154 -79 213.5 -130t89 -113t29.5 -147zM508 -289q0 -94 -75.5 -148.5t-217.5 -54.5q-46 0 -78 7v79q30 -6 72 -6q198 0 198 115q0 97 -151 107l110 190h80l-78 -137 q140 -30 140 -152z" />
<glyph unicode="&#x15f;" horiz-adv-x="827" d="M713 295q0 -144 -103 -229.5t-280 -85.5q-173 0 -305 75v107q74 -46 153 -71t148 -25q138 0 211 57.5t73 163.5q0 42 -15.5 74t-50 61.5t-132.5 85.5q-148 80 -200 145.5t-52 159.5q0 128 98.5 209.5t259.5 81.5q75 0 158.5 -17.5t140.5 -46.5l-35 -88q-136 64 -264 64 q-116 0 -186 -53t-70 -138q0 -55 17 -88t60.5 -68.5t119.5 -76.5q114 -63 161.5 -103.5t70 -86.5t22.5 -107zM449 -289q0 -94 -75.5 -148.5t-217.5 -54.5q-46 0 -78 7v79q30 -6 72 -6q198 0 198 115q0 97 -151 107l110 190h80l-78 -137q140 -30 140 -152z" />
<glyph unicode="&#x160;" horiz-adv-x="1020" d="M895 403q0 -126 -65.5 -224.5t-179.5 -148.5t-269 -50q-88 0 -172.5 17t-171.5 58v109q163 -92 348 -92q188 0 295.5 86.5t107.5 232.5q0 61 -17 104.5t-52.5 78.5t-91 68t-131.5 75q-150 76 -209.5 164t-59.5 206t59 207.5t165 139t237 49.5q99 0 180 -17.5t168 -60.5 l-32 -94q-66 40 -151.5 63t-164.5 23q-163 0 -259.5 -82.5t-96.5 -218.5q0 -103 49 -170t182 -133q154 -79 213.5 -130t89 -113t29.5 -147zM468 1907h49q72 -61 162 -207q55 57 125 114.5t125 92.5h53v-29q-68 -55 -155.5 -146t-129.5 -153h-63q-29 74 -76.5 158t-89.5 141 v29z" />
<glyph unicode="&#x161;" horiz-adv-x="827" d="M713 295q0 -144 -103 -229.5t-280 -85.5q-173 0 -305 75v107q74 -46 153 -71t148 -25q138 0 211 57.5t73 163.5q0 42 -15.5 74t-50 61.5t-132.5 85.5q-148 80 -200 145.5t-52 159.5q0 128 98.5 209.5t259.5 81.5q75 0 158.5 -17.5t140.5 -46.5l-35 -88q-136 64 -264 64 q-116 0 -186 -53t-70 -138q0 -55 17 -88t60.5 -68.5t119.5 -76.5q114 -63 161.5 -103.5t70 -86.5t22.5 -107zM331 1569h49q72 -61 162 -207q55 57 125 114.5t125 92.5h53v-29q-68 -55 -155.5 -146t-129.5 -153h-63q-29 74 -76.5 158t-89.5 141v29z" />
<glyph unicode="&#x162;" horiz-adv-x="985" d="M438 0h-102l289 1368h-432l20 94h973l-19 -94h-440zM492 -289q0 -94 -75.5 -148.5t-217.5 -54.5q-46 0 -78 7v79q30 -6 72 -6q198 0 198 115q0 97 -151 107l110 190h80l-78 -137q140 -30 140 -152z" />
<glyph unicode="&#x163;" horiz-adv-x="616" d="M694 1087l-18 -81h-283l-135 -635q-22 -99 -22 -164q0 -139 126 -139q68 0 152 26v-86q-101 -28 -170 -28q-99 0 -153 54.5t-54 158.5q0 73 29 206l129 607h-182l14 67l184 17l97 253h55l-55 -256h286zM426 -289q0 -94 -75.5 -148.5t-217.5 -54.5q-46 0 -78 7v79 q30 -6 72 -6q198 0 198 115q0 97 -151 107l110 190h80l-78 -137q140 -30 140 -152z" />
<glyph unicode="&#x164;" horiz-adv-x="985" d="M438 0h-102l289 1368h-432l20 94h973l-19 -94h-440zM516 1907h49q72 -61 162 -207q55 57 125 114.5t125 92.5h53v-29q-68 -55 -155.5 -146t-129.5 -153h-63q-29 74 -76.5 158t-89.5 141v29z" />
<glyph unicode="&#x165;" horiz-adv-x="616" d="M694 1087l-18 -81h-283l-135 -635q-22 -99 -22 -164q0 -139 126 -139q68 0 152 26v-86q-101 -28 -170 -28q-99 0 -153 54.5t-54 158.5q0 73 29 206l129 607h-182l14 67l184 17l97 253h55l-55 -256h286zM636 1254q36 46 88 146.5t72 154.5h96v-20q-9 -39 -79.5 -146 t-128.5 -161h-48v26z" />
<glyph unicode="&#x166;" horiz-adv-x="985" d="M182 803h324l119 565h-432l20 94h973l-19 -94h-440l-121 -565h332l-18 -82h-330l-152 -721h-102l151 721h-323z" />
<glyph unicode="&#x167;" horiz-adv-x="573" d="M63 680h162l70 326h-182l14 67l184 17l97 253h55l-55 -256h286l-18 -81h-283l-69 -326h249l-18 -82h-250l-47 -227q-22 -99 -22 -170q0 -57 30.5 -95t95.5 -38q68 0 152 26v-86q-25 -10 -78.5 -19t-87.5 -9q-98 0 -154.5 59t-56.5 154q0 79 25 188l45 217h-162z" />
<glyph unicode="&#x168;" horiz-adv-x="1370" d="M1395 1462l-207 -977q-58 -270 -197 -387.5t-375 -117.5q-440 0 -440 401q0 83 27 201l186 880h103l-193 -899q-20 -89 -20 -184q0 -309 342 -309q195 0 307.5 96.5t158.5 318.5l207 977h101zM1069 1587q-40 0 -77.5 19t-75.5 45q-34 23 -64.5 41t-68.5 18 q-45 0 -74 -28.5t-51 -100.5h-74q19 108 71 166.5t134 58.5q41 0 73.5 -14t117.5 -72q52 -36 94 -36q43 0 71.5 30.5t46.5 100.5h76q-26 -118 -74.5 -173t-124.5 -55z" />
<glyph unicode="&#x169;" horiz-adv-x="1143" d="M381 1087l-152 -698q-22 -106 -22 -158q0 -74 47.5 -117.5t138.5 -43.5q110 0 207.5 65.5t164 187t99.5 279.5l105 485h98l-231 -1087h-80l28 205h-6q-167 -221 -403 -221q-131 0 -198.5 62t-67.5 181q0 60 22 170l150 690h100zM870 1249q-40 0 -77.5 19t-75.5 45 q-34 23 -64.5 41t-68.5 18q-45 0 -74 -28.5t-51 -100.5h-74q19 108 71 166.5t134 58.5q41 0 73.5 -14t117.5 -72q52 -36 94 -36q43 0 71.5 30.5t46.5 100.5h76q-26 -118 -74.5 -173t-124.5 -55z" />
<glyph unicode="&#x16a;" horiz-adv-x="1370" d="M1395 1462l-207 -977q-58 -270 -197 -387.5t-375 -117.5q-440 0 -440 401q0 83 27 201l186 880h103l-193 -899q-20 -89 -20 -184q0 -309 342 -309q195 0 307.5 96.5t158.5 318.5l207 977h101zM663 1671h508l-18 -88h-508z" />
<glyph unicode="&#x16b;" horiz-adv-x="1143" d="M381 1087l-152 -698q-22 -106 -22 -158q0 -74 47.5 -117.5t138.5 -43.5q110 0 207.5 65.5t164 187t99.5 279.5l105 485h98l-231 -1087h-80l28 205h-6q-167 -221 -403 -221q-131 0 -198.5 62t-67.5 181q0 60 22 170l150 690h100zM471 1333h508l-18 -88h-508z" />
<glyph unicode="&#x16c;" horiz-adv-x="1370" d="M1395 1462l-207 -977q-58 -270 -197 -387.5t-375 -117.5q-440 0 -440 401q0 83 27 201l186 880h103l-193 -899q-20 -89 -20 -184q0 -309 342 -309q195 0 307.5 96.5t158.5 318.5l207 977h101zM1188 1819q-29 -120 -101 -177t-192 -57q-105 0 -163 50.5t-58 142.5v21l2 20 h69q0 -68 36 -103t122 -35q85 0 136.5 30.5t76.5 107.5h72z" />
<glyph unicode="&#x16d;" horiz-adv-x="1143" d="M381 1087l-152 -698q-22 -106 -22 -158q0 -74 47.5 -117.5t138.5 -43.5q110 0 207.5 65.5t164 187t99.5 279.5l105 485h98l-231 -1087h-80l28 205h-6q-167 -221 -403 -221q-131 0 -198.5 62t-67.5 181q0 60 22 170l150 690h100zM984 1481q-29 -120 -101 -177t-192 -57 q-105 0 -163 50.5t-58 142.5v21l2 20h69q0 -68 36 -103t122 -35q85 0 136.5 30.5t76.5 107.5h72z" />
<glyph unicode="&#x16e;" horiz-adv-x="1370" d="M1395 1462l-207 -977q-58 -270 -197 -387.5t-375 -117.5q-440 0 -440 401q0 83 27 201l186 880h103l-193 -899q-20 -89 -20 -184q0 -309 342 -309q195 0 307.5 96.5t158.5 318.5l207 977h101zM1110 1786q0 -92 -57.5 -148.5t-145.5 -56.5q-93 0 -148 52t-55 145 q0 88 59.5 144t149.5 56q88 0 142.5 -50t54.5 -142zM1032 1784q0 57 -33.5 90t-87.5 33q-60 0 -93.5 -36t-33.5 -93t33 -90t90 -33q56 0 90.5 36t34.5 93z" />
<glyph unicode="&#x16f;" horiz-adv-x="1143" d="M381 1087l-152 -698q-22 -106 -22 -158q0 -74 47.5 -117.5t138.5 -43.5q110 0 207.5 65.5t164 187t99.5 279.5l105 485h98l-231 -1087h-80l28 205h-6q-167 -221 -403 -221q-131 0 -198.5 62t-67.5 181q0 60 22 170l150 690h100zM929 1448q0 -92 -57.5 -148.5 t-145.5 -56.5q-93 0 -148 52t-55 145q0 88 59.5 144t149.5 56q88 0 142.5 -50t54.5 -142zM851 1446q0 57 -33.5 90t-87.5 33q-60 0 -93.5 -36t-33.5 -93t33 -90t90 -33q56 0 90.5 36t34.5 93z" />
<glyph unicode="&#x170;" horiz-adv-x="1370" d="M1395 1462l-207 -977q-58 -270 -197 -387.5t-375 -117.5q-440 0 -440 401q0 83 27 201l186 880h103l-193 -899q-20 -89 -20 -184q0 -309 342 -309q195 0 307.5 96.5t158.5 318.5l207 977h101zM713 1608q48 49 112 132t115 167h103v-23q-59 -80 -145 -170.5t-146 -134.5 h-39v29zM1026 1608q41 44 107.5 129.5t119.5 169.5h103v-23q-61 -82 -146.5 -171.5t-146.5 -133.5h-37v29z" />
<glyph unicode="&#x171;" horiz-adv-x="1143" d="M381 1087l-152 -698q-22 -106 -22 -158q0 -74 47.5 -117.5t138.5 -43.5q110 0 207.5 65.5t164 187t99.5 279.5l105 485h98l-231 -1087h-80l28 205h-6q-167 -221 -403 -221q-131 0 -198.5 62t-67.5 181q0 60 22 170l150 690h100zM479 1270q48 49 112 132t115 167h103v-23 q-59 -80 -145 -170.5t-146 -134.5h-39v29zM792 1270q41 44 107.5 129.5t119.5 169.5h103v-23q-61 -82 -146.5 -171.5t-146.5 -133.5h-37v29z" />
<glyph unicode="&#x172;" horiz-adv-x="1370" d="M1395 1462l-207 -977q-58 -270 -197 -387.5t-375 -117.5q-440 0 -440 401q0 83 27 201l186 880h103l-193 -899q-20 -89 -20 -184q0 -309 342 -309q195 0 307.5 96.5t158.5 318.5l207 977h101zM785 0l-75 -60q-61 -47 -91.5 -95t-30.5 -101q0 -82 88 -82q33 0 76 10v-71 q-41 -15 -98 -15q-75 0 -116.5 38t-41.5 108q0 69 48 132.5t169 135.5h72z" />
<glyph unicode="&#x173;" horiz-adv-x="1143" d="M381 1087l-152 -698q-22 -106 -22 -158q0 -74 47.5 -117.5t138.5 -43.5q110 0 207.5 65.5t164 187t99.5 279.5l105 485h98l-231 -1087h-80l28 205h-6q-167 -221 -403 -221q-131 0 -198.5 62t-67.5 181q0 60 22 170l150 690h100zM828 0l-75 -60q-61 -47 -91.5 -95 t-30.5 -101q0 -82 88 -82q33 0 76 10v-71q-41 -15 -98 -15q-75 0 -116.5 38t-41.5 108q0 69 48 132.5t169 135.5h72z" />
<glyph unicode="&#x174;" horiz-adv-x="1702" d="M1018 1341q-27 -76 -62 -153.5t-563 -1187.5h-82l-73 1462h100l47 -1031l4 -165l-2 -86h6q85 226 170 398l434 884h105l61 -878q19 -266 19 -410h6q30 86 61.5 163t493.5 1125h108q-169 -365 -330.5 -731t-328.5 -731h-78l-78 1075q-11 142 -11 219l1 47h-8zM1310 1579 h-49q-70 60 -161 207q-55 -57 -125 -114.5t-125 -92.5h-54v29q68 56 157.5 148.5t127.5 150.5h64q23 -64 72.5 -152.5t92.5 -146.5v-29z" />
<glyph unicode="&#x175;" horiz-adv-x="1393" d="M838 0l-60 686q-14 224 -14 266h-6q-34 -92 -144 -290l-356 -662h-117l-20 1087h92l13 -821l-3 -157h6q61 134 150 297l373 681h77l64 -681q14 -147 14 -297h6l24 61l101 236l320 681h96l-508 -1087h-108zM1071 1241h-49q-70 60 -161 207q-55 -57 -125 -114.5t-125 -92.5 h-54v29q68 56 157.5 148.5t127.5 150.5h64q23 -64 72.5 -152.5t92.5 -146.5v-29z" />
<glyph unicode="&#x176;" horiz-adv-x="965" d="M494 645l544 817h117l-631 -932l-108 -530h-105l119 545l-237 917h100zM928 1579h-49q-70 60 -161 207q-55 -57 -125 -114.5t-125 -92.5h-54v29q68 56 157.5 148.5t127.5 150.5h64q23 -64 72.5 -152.5t92.5 -146.5v-29z" />
<glyph unicode="&#x177;" horiz-adv-x="920" d="M123 1087h100l82 -548q51 -351 55 -449h11q43 105 186 367l348 630h103l-713 -1290q-72 -127 -122.5 -178t-114 -81t-146.5 -30q-68 0 -129 21v92q71 -27 137 -27q80 0 147 49.5t130 164.5t100 184zM830 1241h-49q-70 60 -161 207q-55 -57 -125 -114.5t-125 -92.5h-54v29 q68 56 157.5 148.5t127.5 150.5h64q23 -64 72.5 -152.5t92.5 -146.5v-29z" />
<glyph unicode="&#x178;" horiz-adv-x="965" d="M494 645l544 817h117l-631 -932l-108 -530h-105l119 545l-237 917h100zM798 1704q0 49 20.5 78t56.5 29q54 0 54 -64q0 -48 -21 -77t-55 -29q-55 0 -55 63zM454 1704q0 49 20.5 78t56.5 29q54 0 54 -64q0 -48 -21 -77t-55 -29q-55 0 -55 63z" />
<glyph unicode="&#x179;" d="M913 0h-925l22 92l1069 1276h-764l23 94h887l-19 -88l-1069 -1280h799zM668 1600q66 51 150.5 142t129.5 165h137v-23q-51 -66 -157.5 -158.5t-192.5 -146.5h-67v21z" />
<glyph unicode="&#x17a;" horiz-adv-x="887" d="M700 0h-729l15 72l776 932h-543l17 83h659l-18 -83l-762 -920h602zM489 1262q66 51 150.5 142t129.5 165h137v-23q-51 -66 -157.5 -158.5t-192.5 -146.5h-67v21z" />
<glyph unicode="&#x17b;" d="M913 0h-925l22 92l1069 1276h-764l23 94h887l-19 -88l-1069 -1280h799zM719 1704q0 56 21.5 88.5t60.5 32.5q57 0 57 -72q0 -58 -22.5 -90.5t-57.5 -32.5q-59 0 -59 74z" />
<glyph unicode="&#x17c;" horiz-adv-x="887" d="M700 0h-729l15 72l776 932h-543l17 83h659l-18 -83l-762 -920h602zM527 1366q0 56 21.5 88.5t60.5 32.5q57 0 57 -72q0 -58 -22.5 -90.5t-57.5 -32.5q-59 0 -59 74z" />
<glyph unicode="&#x17d;" d="M913 0h-925l22 92l1069 1276h-764l23 94h887l-19 -88l-1069 -1280h799zM567 1907h49q72 -61 162 -207q55 57 125 114.5t125 92.5h53v-29q-68 -55 -155.5 -146t-129.5 -153h-63q-29 74 -76.5 158t-89.5 141v29z" />
<glyph unicode="&#x17e;" horiz-adv-x="887" d="M700 0h-729l15 72l776 932h-543l17 83h659l-18 -83l-762 -920h602zM382 1569h49q72 -61 162 -207q55 57 125 114.5t125 92.5h53v-29q-68 -55 -155.5 -146t-129.5 -153h-63q-29 74 -76.5 158t-89.5 141v29z" />
<glyph unicode="&#x17f;" horiz-adv-x="473" d="M-184 -492q-49 0 -103 19v90q53 -16 101 -16q88 0 134 53t75 186l294 1407q38 169 118.5 244.5t226.5 75.5q40 0 90 -11t75 -20l-24 -80q-87 27 -148 27q-95 0 -152 -53t-85 -179l-303 -1435q-33 -161 -104 -234.5t-195 -73.5z" />
<glyph unicode="&#x192;" d="M104 -492q-48 0 -102 19v90q53 -16 100 -16q88 0 134 53t75 186l215 1018h-204l14 68l205 14l47 223q35 168 116.5 244t227.5 76q73 0 166 -31l-25 -80q-87 27 -147 27q-96 0 -153.5 -53.5t-84.5 -178.5l-47 -227h248l-17 -82h-247l-222 -1042q-34 -165 -105.5 -236.5 t-193.5 -71.5z" />
<glyph unicode="&#x1a0;" horiz-adv-x="1464" d="M1403 911q0 -255 -94 -481.5t-252 -338t-365 -111.5q-250 0 -385 149t-135 430q0 262 93 477.5t255 331t373 115.5q143 0 252.5 -54t175.5 -163q102 41 154 109t71 181h105l12 -18q-53 -246 -305 -344q45 -121 45 -283zM879 1389q-174 0 -308.5 -101t-214.5 -298 t-80 -417q0 -245 109.5 -373t319.5 -128q169 0 300 98.5t210 300t79 430.5q0 240 -104.5 364t-310.5 124z" />
<glyph unicode="&#x1a1;" horiz-adv-x="1155" d="M649 1108q203 0 301 -137q87 35 135.5 101.5t67.5 178.5h104l13 -18q-52 -240 -281 -334q37 -87 37 -199q0 -197 -71.5 -368.5t-195.5 -261.5t-286 -90q-184 0 -279.5 109.5t-95.5 313.5q0 191 73 358t197 257t281 90zM641 1022q-124 0 -223 -78.5t-158 -225t-59 -310.5 q0 -342 282 -342q127 0 225.5 77.5t157 228t58.5 330.5q0 154 -73 237t-210 83z" />
<glyph unicode="&#x1af;" horiz-adv-x="1489" d="M1395 1462l-45 -211q101 29 160.5 99t82.5 206h105l12 -18q-35 -160 -129.5 -248.5t-249.5 -126.5l-143 -678q-58 -270 -197 -387.5t-375 -117.5q-440 0 -440 401q0 83 27 201l186 880h103l-193 -899q-20 -89 -20 -184q0 -309 342 -309q195 0 307.5 96.5t158.5 318.5 l207 977h101z" />
<glyph unicode="&#x1b0;" horiz-adv-x="1284" d="M381 1087l-152 -698q-22 -106 -22 -158q0 -74 47.5 -117.5t138.5 -43.5q110 0 207.5 65.5t164 187t99.5 279.5l105 485h98l-31 -145q103 28 163 99t83 212h104l13 -18q-35 -162 -130 -254t-251 -127l-182 -854h-80l28 205h-6q-167 -221 -403 -221q-131 0 -198.5 62 t-67.5 181q0 60 22 170l150 690h100z" />
<glyph unicode="&#x1f0;" horiz-adv-x="475" d="M-166 -492q-62 0 -113 19v92q47 -22 113 -22q82 0 128.5 51.5t72.5 177.5l266 1261h96l-268 -1271q-35 -165 -106.5 -236.5t-188.5 -71.5zM181 1569h49q72 -61 162 -207q55 57 125 114.5t125 92.5h53v-29q-68 -55 -155.5 -146t-129.5 -153h-63q-29 74 -76.5 158 t-89.5 141v29z" />
<glyph unicode="&#x1fa;" horiz-adv-x="1059" d="M928 1446q0 -63 -31 -114t-90 -72l172 -1260h-105l-69 520h-512l-287 -520h-117l713 1276q-37 26 -58.5 68.5t-21.5 95.5q0 90 59 146t148 56q93 0 146 -52.5t53 -143.5zM793 612l-39 291q-22 155 -35 342h-33q-28 -55 -58 -112.5t-284 -520.5h449zM852 1444 q0 57 -32.5 91t-92.5 34q-54 0 -89.5 -34t-35.5 -91q0 -59 32.5 -92t92.5 -33q56 0 90.5 33t34.5 92zM676 1729q66 51 150.5 142t129.5 165h138v-23q-58 -71 -161 -161t-190 -144h-67v21z" />
<glyph unicode="&#x1fb;" horiz-adv-x="1133" d="M655 1104q232 0 279 -219h6l59 202h80l-229 -1087h-82l45 274h-6q-84 -142 -187 -218t-237 -76q-281 0 -281 374q0 197 75 376t200.5 276.5t277.5 97.5zM406 70q89 0 177.5 62t159 166t107.5 230t37 213q0 79 -26 141.5t-77 99t-127 36.5q-124 0 -224 -82t-164 -245.5 t-64 -325.5q0 -152 50 -223.5t151 -71.5zM931 1398q0 -92 -57.5 -148.5t-145.5 -56.5q-93 0 -148 52t-55 145q0 88 59.5 144t149.5 56q88 0 142.5 -50t54.5 -142zM853 1396q0 57 -33.5 90t-87.5 33q-60 0 -93.5 -36t-33.5 -93t33 -90t90 -33q56 0 90.5 36t34.5 93zM656 1684 q66 51 150.5 142t129.5 165h137v-23q-51 -66 -157.5 -158.5t-192.5 -146.5h-67v21z" />
<glyph unicode="&#x1fc;" horiz-adv-x="1640" d="M1403 0h-727l110 522h-444l-328 -522h-131l946 1462h883l-20 -94h-625l-117 -553h590l-20 -94h-588l-135 -627h626zM408 627h401l156 741h-88zM1100 1600q66 51 150.5 142t129.5 165h137v-23q-51 -66 -157.5 -158.5t-192.5 -146.5h-67v21z" />
<glyph unicode="&#x1fd;" horiz-adv-x="1602" d="M1155 -20q-123 0 -211 60t-117 165l-39 -205h-77l41 254h-9q-94 -142 -189 -208t-208 -66q-120 0 -182 94t-62 270q0 206 70.5 384.5t192.5 277t274 98.5q106 0 166 -56.5t74 -156.5h10l59 192h66l-35 -186q139 207 350 207q112 0 175 -61.5t63 -172.5 q0 -179 -158.5 -271.5t-470.5 -92.5h-39q-8 -51 -8 -96q0 -161 69.5 -250.5t217.5 -89.5q69 0 133.5 21t130.5 52v-94q-80 -37 -147 -53t-140 -16zM369 70q67 0 138.5 42t134 117.5t106 170.5t63.5 199t20 165q0 118 -49 186t-141 68q-123 0 -223 -86t-156.5 -240 t-56.5 -340q0 -150 42.5 -216t121.5 -66zM1317 1018q-119 0 -232 -115.5t-172 -308.5h48q263 0 383 67t120 203q0 71 -38.5 112.5t-108.5 41.5zM969 1262q66 51 150.5 142t129.5 165h137v-23q-51 -66 -157.5 -158.5t-192.5 -146.5h-67v21z" />
<glyph unicode="&#x1fe;" horiz-adv-x="1464" d="M1403 911q0 -187 -52 -365.5t-144.5 -304.5t-223 -193.5t-291.5 -67.5q-215 0 -348 112l-139 -170l-66 64l146 172q-113 149 -113 401q0 263 94 479.5t256.5 330.5t370.5 114q219 0 352 -121l133 168l70 -53l-145 -183q45 -51 72.5 -161t27.5 -222zM879 1389 q-134 0 -244 -59.5t-188.5 -170t-124.5 -267.5t-46 -319q0 -105 21.5 -191t56.5 -138l826 1032q-107 113 -301 113zM1294 901q0 85 -17.5 172t-43.5 129l-821 -1030q107 -100 293 -100q170 0 301 100t209.5 296.5t78.5 432.5zM813 1600q66 51 150.5 142t129.5 165h137v-23 q-51 -66 -157.5 -158.5t-192.5 -146.5h-67v21z" />
<glyph unicode="&#x1ff;" horiz-adv-x="1124" d="M164 127q-66 106 -66 276q0 191 73 358t197 257t281 90q150 0 250 -82l109 133l65 -53l-117 -143q70 -105 70 -263q0 -197 -71.5 -368.5t-195.5 -261.5t-286 -90q-163 0 -254 83l-110 -135l-64 54zM924 702q0 101 -35 179l-608 -742q67 -73 202 -73q127 0 225.5 77.5 t157 228t58.5 330.5zM641 1022q-124 0 -223 -78.5t-158 -225t-59 -310.5q0 -125 32 -197l605 739q-74 72 -197 72zM580 1262q66 51 150.5 142t129.5 165h137v-23q-51 -66 -157.5 -158.5t-192.5 -146.5h-67v21z" />
<glyph unicode="&#x218;" horiz-adv-x="1020" d="M895 403q0 -126 -65.5 -224.5t-179.5 -148.5t-269 -50q-88 0 -172.5 17t-171.5 58v109q163 -92 348 -92q188 0 295.5 86.5t107.5 232.5q0 61 -17 104.5t-52.5 78.5t-91 68t-131.5 75q-150 76 -209.5 164t-59.5 206t59 207.5t165 139t237 49.5q99 0 180 -17.5t168 -60.5 l-32 -94q-66 40 -151.5 63t-164.5 23q-163 0 -259.5 -82.5t-96.5 -218.5q0 -103 49 -170t182 -133q154 -79 213.5 -130t89 -113t29.5 -147zM199 -426q34 44 85.5 142t74.5 159h96v-20q-9 -40 -78.5 -145.5t-130.5 -162.5h-47v27z" />
<glyph unicode="&#x219;" horiz-adv-x="827" d="M713 295q0 -144 -103 -229.5t-280 -85.5q-173 0 -305 75v107q74 -46 153 -71t148 -25q138 0 211 57.5t73 163.5q0 42 -15.5 74t-50 61.5t-132.5 85.5q-148 80 -200 145.5t-52 159.5q0 128 98.5 209.5t259.5 81.5q75 0 158.5 -17.5t140.5 -46.5l-35 -88q-136 64 -264 64 q-116 0 -186 -53t-70 -138q0 -55 17 -88t60.5 -68.5t119.5 -76.5q114 -63 161.5 -103.5t70 -86.5t22.5 -107zM112 -426q34 44 85.5 142t74.5 159h96v-20q-9 -40 -78.5 -145.5t-130.5 -162.5h-47v27z" />
<glyph unicode="&#x21a;" horiz-adv-x="985" d="M438 0h-102l289 1368h-432l20 94h973l-19 -94h-440zM161 -426q34 44 85.5 142t74.5 159h96v-20q-9 -40 -78.5 -145.5t-130.5 -162.5h-47v27z" />
<glyph unicode="&#x21b;" horiz-adv-x="616" d="M694 1087l-18 -81h-283l-135 -635q-22 -99 -22 -164q0 -139 126 -139q68 0 152 26v-86q-101 -28 -170 -28q-99 0 -153 54.5t-54 158.5q0 73 29 206l129 607h-182l14 67l184 17l97 253h55l-55 -256h286zM75 -426q34 44 85.5 142t74.5 159h96v-20q-9 -40 -78.5 -145.5 t-130.5 -162.5h-47v27z" />
<glyph unicode="&#x237;" horiz-adv-x="475" d="M-166 -492q-62 0 -113 19v92q47 -22 113 -22q82 0 128.5 51.5t72.5 177.5l266 1261h96l-268 -1271q-35 -165 -106.5 -236.5t-188.5 -71.5z" />
<glyph unicode="&#x2bc;" horiz-adv-x="299" d="M475 1462l4 -22q-43 -105 -117.5 -235.5t-158.5 -243.5h-74q66 106 129.5 242.5t103.5 258.5h113z" />
<glyph unicode="&#x2c6;" horiz-adv-x="1135" d="M958 1241h-49q-70 60 -161 207q-55 -57 -125 -114.5t-125 -92.5h-54v29q68 56 157.5 148.5t127.5 150.5h64q23 -64 72.5 -152.5t92.5 -146.5v-29z" />
<glyph unicode="&#x2c7;" horiz-adv-x="1135" d="M514 1569h49q72 -61 162 -207q55 57 125 114.5t125 92.5h53v-29q-68 -55 -155.5 -146t-129.5 -153h-63q-29 74 -76.5 158t-89.5 141v29z" />
<glyph unicode="&#x2c9;" horiz-adv-x="1096" d="M434 1333h508l-18 -88h-508z" />
<glyph unicode="&#x2d8;" horiz-adv-x="1135" d="M1008 1481q-29 -120 -101 -177t-192 -57q-105 0 -163 50.5t-58 142.5v21l2 20h69q0 -68 36 -103t122 -35q85 0 136.5 30.5t76.5 107.5h72z" />
<glyph unicode="&#x2d9;" horiz-adv-x="440" d="M326 1366q0 56 21.5 88.5t60.5 32.5q57 0 57 -72q0 -58 -22.5 -90.5t-57.5 -32.5q-59 0 -59 74z" />
<glyph unicode="&#x2da;" horiz-adv-x="1182" d="M967 1448q0 -92 -57.5 -148.5t-145.5 -56.5q-93 0 -148 52t-55 145q0 88 59.5 144t149.5 56q88 0 142.5 -50t54.5 -142zM889 1446q0 57 -33.5 90t-87.5 33q-60 0 -93.5 -36t-33.5 -93t33 -90t90 -33q56 0 90.5 36t34.5 93z" />
<glyph unicode="&#x2db;" horiz-adv-x="348" d="M154 0l-75 -60q-61 -47 -91.5 -95t-30.5 -101q0 -82 88 -82q33 0 76 10v-71q-41 -15 -98 -15q-75 0 -116.5 38t-41.5 108q0 69 48 132.5t169 135.5h72z" />
<glyph unicode="&#x2dc;" horiz-adv-x="1135" d="M831 1249q-40 0 -77.5 19t-75.5 45q-34 23 -64.5 41t-68.5 18q-45 0 -74 -28.5t-51 -100.5h-74q19 108 71 166.5t134 58.5q41 0 73.5 -14t117.5 -72q52 -36 94 -36q43 0 71.5 30.5t46.5 100.5h76q-26 -118 -74.5 -173t-124.5 -55z" />
<glyph unicode="&#x2dd;" horiz-adv-x="1135" d="M461 1270q48 49 112 132t115 167h103v-23q-59 -80 -145 -170.5t-146 -134.5h-39v29zM774 1270q41 44 107.5 129.5t119.5 169.5h103v-23q-61 -82 -146.5 -171.5t-146.5 -133.5h-37v29z" />
<glyph unicode="&#x2f3;" horiz-adv-x="682" d="M365 -322q0 -92 -58 -146t-155 -54q-96 0 -150.5 53t-54.5 145q0 93 54.5 146t150.5 53q97 0 155 -55t58 -142zM276 -324q0 57 -34.5 91t-89.5 34q-54 0 -88.5 -34t-34.5 -91q0 -58 31.5 -91.5t91.5 -33.5q55 0 89.5 33.5t34.5 91.5z" />
<glyph unicode="&#x300;" horiz-adv-x="0" d="M-411 1241h-66q-50 52 -114 144.5t-99 162.5v21h115q46 -129 164 -303v-25z" />
<glyph unicode="&#x301;" horiz-adv-x="0" d="M-541 1262q66 51 150.5 142t129.5 165h137v-23q-51 -66 -157.5 -158.5t-192.5 -146.5h-67v21z" />
<glyph unicode="&#x303;" horiz-adv-x="0" d="M-331 1249q-40 0 -77.5 19t-75.5 45q-34 23 -64.5 41t-68.5 18q-45 0 -74 -28.5t-51 -100.5h-74q19 108 71 166.5t134 58.5q41 0 73.5 -14t117.5 -72q52 -36 94 -36q43 0 71.5 30.5t46.5 100.5h76q-26 -118 -74.5 -173t-124.5 -55z" />
<glyph unicode="&#x309;" horiz-adv-x="0" d="M-248 1526q0 -152 -227 -193l-33 -125h-78l33 178q123 19 169 48t46 82q0 38 -34 58.5t-97 20.5q-48 0 -98 -10v70q46 10 98 10q221 0 221 -139z" />
<glyph unicode="&#x30f;" horiz-adv-x="0" d="M-780 1241h-74q-47 47 -116 147t-99 160v21h125q49 -137 164 -303v-25zM-449 1241h-73q-47 47 -116 147t-99 160v21h125q47 -132 163 -303v-25z" />
<glyph unicode="&#x323;" horiz-adv-x="0" d="M-810 -239q0 56 21.5 88.5t60.5 32.5q57 0 57 -72q0 -58 -22.5 -90.5t-57.5 -32.5q-59 0 -59 74z" />
<glyph unicode="&#x384;" horiz-adv-x="1163" d="M651 1266q57 81 116.5 191.5t94.5 205.5h111v-31q-29 -70 -108.5 -191.5t-147.5 -199.5h-66v25z" />
<glyph unicode="&#x385;" horiz-adv-x="1163" d="M733 1368q0 52 20.5 81.5t55.5 29.5q51 0 51 -66q0 -52 -19.5 -82.5t-54.5 -30.5q-53 0 -53 68zM319 1368q0 52 20.5 81.5t55.5 29.5q51 0 51 -66q0 -52 -19.5 -82.5t-53.5 -30.5q-26 0 -40 18t-14 50zM541 1405q39 72 77.5 161.5t55.5 149.5h117v-18q-26 -60 -82 -151.5 t-111 -157.5h-57v16z" />
<glyph unicode="&#x386;" horiz-adv-x="1059" d="M805 520h-512l-287 -520h-117l822 1468h67l201 -1468h-105zM793 612l-39 291q-31 242 -39 402q-30 -63 -64.5 -130t-306.5 -563h449zM169 1161q57 81 116.5 191.5t94.5 205.5h111v-31q-29 -70 -108.5 -191.5t-147.5 -199.5h-66v25z" />
<glyph unicode="&#x387;" horiz-adv-x="485" d="M207 698q0 56 25 88.5t69 32.5q66 0 66 -72q0 -53 -25 -87.5t-67 -34.5q-68 0 -68 73z" />
<glyph unicode="&#x388;" horiz-adv-x="1098" d="M89 1161q57 81 116.5 191.5t94.5 205.5h111v-31q-29 -70 -108.5 -191.5t-147.5 -199.5h-66v25zM976 0h-727l310 1462h727l-21 -94h-624l-117 -553h590l-21 -94h-588l-135 -627h627z" />
<glyph unicode="&#x389;" horiz-adv-x="1526" d="M89 1161q57 81 116.5 191.5t94.5 205.5h111v-31q-29 -70 -108.5 -191.5t-147.5 -199.5h-66v25zM1221 0h-100l151 719h-760l-149 -719h-103l310 1462h102l-139 -649h760l137 649h100z" />
<glyph unicode="&#x38a;" horiz-adv-x="659" d="M258 0l310 1462h98l-309 -1462h-99zM109 1161q57 81 116.5 191.5t94.5 205.5h111v-31q-29 -70 -108.5 -191.5t-147.5 -199.5h-66v25z" />
<glyph unicode="&#x38c;" horiz-adv-x="1520" d="M103 1161q57 81 116.5 191.5t94.5 205.5h111v-31q-29 -70 -108.5 -191.5t-147.5 -199.5h-66v25zM1456 911q0 -255 -94 -481.5t-252 -338t-365 -111.5q-250 0 -385 149t-135 430q0 262 93 477.5t255 331t373 115.5q247 0 378.5 -148.5t131.5 -423.5zM932 1389 q-174 0 -308.5 -101t-214.5 -298t-80 -417q0 -245 109.5 -373t319.5 -128q169 0 300 98.5t210 300t79 430.5q0 240 -104.5 364t-310.5 124z" />
<glyph unicode="&#x38e;" horiz-adv-x="1231" d="M813 645l544 817h117l-631 -932l-108 -530h-105l119 545l-237 917h100zM89 1161q57 81 116.5 191.5t94.5 205.5h111v-31q-29 -70 -108.5 -191.5t-147.5 -199.5h-66v25z" />
<glyph unicode="&#x38f;" horiz-adv-x="1583" d="M953 1389q-135 0 -245 -52.5t-188 -149.5t-124 -236.5t-46 -282.5q0 -129 27.5 -230.5t77 -186t156.5 -194.5l-11 -57h-499l18 94h346q-84 94 -126 174.5t-67.5 180.5t-25.5 225q0 227 94.5 421t253 291t363.5 97q251 0 385.5 -145.5t134.5 -426.5q0 -253 -123 -472 t-334 -345h377l-18 -94h-560l11 57q265 146 401.5 367.5t136.5 495.5q0 224 -108 346.5t-307 122.5zM130 1161q57 81 116.5 191.5t94.5 205.5h111v-31q-29 -70 -108.5 -191.5t-147.5 -199.5h-66v25z" />
<glyph unicode="&#x390;" horiz-adv-x="559" d="M346 68q55 0 131 20v-84q-84 -24 -149 -24q-100 0 -153.5 57.5t-53.5 155.5q0 83 29 206l147 688h98l-153 -716q-23 -103 -23 -164q0 -139 127 -139zM539 1368q0 52 20.5 81.5t55.5 29.5q51 0 51 -66q0 -52 -19.5 -82.5t-54.5 -30.5q-53 0 -53 68zM125 1368 q0 52 20.5 81.5t55.5 29.5q51 0 51 -66q0 -52 -19.5 -82.5t-53.5 -30.5q-26 0 -40 18t-14 50zM347 1405q39 72 77.5 161.5t55.5 149.5h117v-18q-26 -60 -82 -151.5t-111 -157.5h-57v16z" />
<glyph unicode="&#x391;" horiz-adv-x="1059" d="M805 520h-512l-287 -520h-117l822 1468h67l201 -1468h-105zM793 612l-39 291q-31 242 -39 402q-30 -63 -64.5 -130t-306.5 -563h449z" />
<glyph unicode="&#x392;" horiz-adv-x="1202" d="M412 1462h379q190 0 290.5 -84t100.5 -241q0 -153 -90 -249t-254 -124v-4q125 -31 188.5 -113.5t63.5 -204.5q0 -205 -140.5 -323.5t-390.5 -118.5h-457zM377 811h278q206 0 313 81t107 238q0 119 -78 180.5t-229 61.5h-272zM358 721l-135 -631h342q201 0 309.5 87.5 t108.5 256.5q0 145 -90 216t-275 71h-260z" />
<glyph unicode="&#x393;" horiz-adv-x="981" d="M205 0h-103l310 1462h708l-20 -94h-604z" />
<glyph unicode="&#x394;" horiz-adv-x="1092" d="M752 1468h67l193 -1402l-11 -66h-1046l14 70zM754 1305q-42 -90 -93.5 -188t-560.5 -1021h801q-70 531 -107 812t-40 397z" />
<glyph unicode="&#x395;" horiz-adv-x="1067" d="M829 0h-727l310 1462h727l-21 -94h-624l-117 -553h590l-21 -94h-588l-135 -627h627z" />
<glyph unicode="&#x396;" d="M913 0h-925l22 92l1069 1276h-764l23 94h887l-19 -88l-1069 -1280h799z" />
<glyph unicode="&#x397;" horiz-adv-x="1366" d="M1063 0h-100l151 719h-760l-149 -719h-103l310 1462h102l-139 -649h760l137 649h100z" />
<glyph unicode="&#x398;" horiz-adv-x="1464" d="M1087 793l-18 -97h-600l18 97h600zM1403 911q0 -255 -94 -481.5t-252 -338t-365 -111.5q-250 0 -385 149t-135 430q0 262 93 477.5t255 331t373 115.5q247 0 378.5 -148.5t131.5 -423.5zM879 1389q-174 0 -308.5 -101t-214.5 -298t-80 -417q0 -245 109.5 -373t319.5 -128 q169 0 300 98.5t210 300t79 430.5q0 240 -104.5 364t-310.5 124z" />
<glyph unicode="&#x399;" horiz-adv-x="504" d="M102 0l310 1462h98l-309 -1462h-99z" />
<glyph unicode="&#x39a;" horiz-adv-x="1122" d="M979 0h-111l-342 788l-190 -153l-131 -635h-103l310 1462h102l-158 -723l133 121l680 602h138l-699 -610z" />
<glyph unicode="&#x39b;" horiz-adv-x="1100" d="M737 1331q-67 -148 -205 -391l-526 -940h-119l830 1462h92l207 -1462h-101l-139 985q-29 206 -35 346h-4z" />
<glyph unicode="&#x39c;" horiz-adv-x="1669" d="M772 205l733 1257h150l-301 -1462h-101l191 901q79 369 100 447h-6l-780 -1348h-51l-222 1348h-6q-20 -154 -78 -426l-196 -922h-96l309 1462h143l205 -1257h6z" />
<glyph unicode="&#x39d;" horiz-adv-x="1372" d="M1069 0h-86l-516 1284h-8q-23 -149 -48 -273t-214 -1011h-95l310 1462h80l522 -1294h8q23 176 74 416l188 878h94z" />
<glyph unicode="&#x39e;" horiz-adv-x="1057" d="M285 815h626l-18 -94h-627zM330 1462h809l-19 -94h-811zM889 94l-21 -94h-886l18 94h889z" />
<glyph unicode="&#x39f;" horiz-adv-x="1464" d="M1403 911q0 -255 -94 -481.5t-252 -338t-365 -111.5q-250 0 -385 149t-135 430q0 262 93 477.5t255 331t373 115.5q247 0 378.5 -148.5t131.5 -423.5zM879 1389q-174 0 -308.5 -101t-214.5 -298t-80 -417q0 -245 109.5 -373t319.5 -128q169 0 300 98.5t210 300t79 430.5 q0 240 -104.5 364t-310.5 124z" />
<glyph unicode="&#x3a0;" horiz-adv-x="1374" d="M1063 0h-100l288 1366h-757l-289 -1366h-103l310 1462h960z" />
<glyph unicode="&#x3a1;" horiz-adv-x="1145" d="M1145 1102q0 -500 -610 -500h-201l-129 -602h-103l310 1462h315q202 0 310 -92.5t108 -267.5zM350 694h191q252 0 373.5 96.5t121.5 305.5q0 274 -329 274h-211z" />
<glyph unicode="&#x3a3;" horiz-adv-x="1044" d="M-23 0l15 88l626 655l-337 635l16 84h840l-19 -94h-530l-197 4l336 -641l-612 -641l151 4h639l-20 -94h-908z" />
<glyph unicode="&#x3a4;" horiz-adv-x="985" d="M438 0h-102l289 1368h-432l20 94h973l-19 -94h-440z" />
<glyph unicode="&#x3a5;" horiz-adv-x="965" d="M494 645l544 817h117l-631 -932l-108 -530h-105l119 545l-237 917h100z" />
<glyph unicode="&#x3a6;" horiz-adv-x="1446" d="M561 -20l49 233q-144 8 -245.5 69.5t-155 161.5t-53.5 230q0 177 82.5 318.5t236 217.5t365.5 82l41 191h100l-39 -191q218 -14 334.5 -129.5t116.5 -316.5q0 -187 -84 -330.5t-237 -219.5t-357 -83l-51 -233h-103zM733 305q264 8 409.5 147t145.5 388q0 163 -92 257.5 t-274 100.5zM819 1198q-171 -3 -296.5 -65t-195 -180t-69.5 -271q0 -174 100 -273.5t273 -103.5z" />
<glyph unicode="&#x3a7;" horiz-adv-x="971" d="M879 0h-107l-254 678l-526 -678h-127l608 766l-272 696h106l240 -626l483 626h119l-555 -719z" />
<glyph unicode="&#x3a8;" horiz-adv-x="1419" d="M770 455h-12l-96 -455h-103l96 455h-8q-212 0 -325 100.5t-113 292.5q0 102 29 239l79 375h103q-55 -258 -85.5 -399.5t-25.5 -206.5q0 -160 86 -236.5t267 -76.5h12l194 919h103l-195 -919h10q235 0 360.5 105t178.5 351l100 463h101l-105 -485q-56 -275 -214.5 -398.5 t-436.5 -123.5z" />
<glyph unicode="&#x3a9;" horiz-adv-x="1511" d="M879 1389q-135 0 -245 -52.5t-188 -149.5t-124 -236.5t-46 -282.5q0 -129 27.5 -230.5t77 -186t156.5 -194.5l-11 -57h-499l18 94h346q-84 94 -126 174.5t-67.5 180.5t-25.5 225q0 227 94.5 421t253 291t363.5 97q251 0 385.5 -145.5t134.5 -426.5q0 -253 -123 -472 t-334 -345h377l-18 -94h-560l11 57q265 146 401.5 367.5t136.5 495.5q0 224 -108 346.5t-307 122.5z" />
<glyph unicode="&#x3aa;" horiz-adv-x="504" d="M102 0l310 1462h98l-309 -1462h-99zM604 1704q0 49 20.5 78t56.5 29q54 0 54 -64q0 -48 -21 -77t-55 -29q-55 0 -55 63zM260 1704q0 49 20.5 78t56.5 29q54 0 54 -64q0 -48 -21 -77t-55 -29q-55 0 -55 63z" />
<glyph unicode="&#x3ab;" horiz-adv-x="965" d="M494 645l544 817h117l-631 -932l-108 -530h-105l119 545l-237 917h100zM796 1704q0 49 20.5 78t56.5 29q54 0 54 -64q0 -48 -21 -77t-55 -29q-55 0 -55 63zM452 1704q0 49 20.5 78t56.5 29q54 0 54 -64q0 -48 -21 -77t-55 -29q-55 0 -55 63z" />
<glyph unicode="&#x3ac;" horiz-adv-x="1137" d="M655 1104q113 0 185.5 -57t99.5 -173h6q52 143 105 213h82q-36 -61 -77 -183.5t-75 -278.5q-73 -344 -79.5 -390.5t-6.5 -70.5q0 -98 76 -98q39 0 94 22v-78q-60 -30 -123 -30q-77 0 -112 44.5t-35 116.5q0 55 12 133h-6q-164 -294 -418 -294q-281 0 -281 374 q0 197 75 376t200.5 276.5t277.5 97.5zM406 70q92 0 181.5 61.5t158 165.5t105 227t36.5 217q0 79 -26 141.5t-77 99t-127 36.5q-124 0 -224 -82t-164 -245.5t-64 -325.5q0 -152 50 -223.5t151 -71.5zM634 1266q57 81 116.5 191.5t94.5 205.5h111v-31q-29 -70 -108.5 -191.5 t-147.5 -199.5h-66v25z" />
<glyph unicode="&#x3ad;" horiz-adv-x="840" d="M621 524h-113q-168 0 -257 -66.5t-89 -191.5q0 -95 62.5 -147.5t178.5 -52.5q82 0 175.5 24.5t162.5 63.5v-93q-68 -35 -159 -58t-187 -23q-157 0 -246.5 74t-89.5 204q0 132 82 217.5t228 106.5v4q-72 25 -116 79.5t-44 135.5q0 138 103 220.5t276 82.5q162 0 289 -66 l-39 -86q-51 29 -120.5 46.5t-131.5 17.5q-133 0 -204 -55.5t-71 -157.5q0 -91 63 -139t179 -48h86zM558 1266q57 81 116.5 191.5t94.5 205.5h111v-31q-29 -70 -108.5 -191.5t-147.5 -199.5h-66v25z" />
<glyph unicode="&#x3ae;" horiz-adv-x="1153" d="M657 -492l256 1184q21 92 21 156q0 80 -43.5 125t-134.5 45q-112 0 -210.5 -67t-166 -187.5t-103.5 -286.5l-102 -477h-98l231 1087h82l-37 -221h6q164 238 416 238q130 0 195 -64t65 -184q0 -70 -24 -182l-256 -1166h-97zM653 1266q57 81 116.5 191.5t94.5 205.5h111 v-31q-29 -70 -108.5 -191.5t-147.5 -199.5h-66v25z" />
<glyph unicode="&#x3af;" horiz-adv-x="559" d="M337 68q55 0 131 20v-84q-84 -24 -149 -24q-100 0 -153.5 57.5t-53.5 155.5q0 83 29 206l147 688h98l-153 -716q-23 -103 -23 -164q0 -139 127 -139zM312 1266q57 81 116.5 191.5t94.5 205.5h111v-31q-29 -70 -108.5 -191.5t-147.5 -199.5h-66v25z" />
<glyph unicode="&#x3b0;" horiz-adv-x="1139" d="M483 -20q-162 0 -252 91.5t-90 254.5q0 105 37 270l105 491h102l-102 -479q-29 -141 -34 -184.5t-5 -89.5q0 -132 64 -200t188 -68q230 0 346 258.5t116 762.5h103q0 -1107 -578 -1107zM856 1368q0 52 20.5 81.5t55.5 29.5q51 0 51 -66q0 -52 -19.5 -82.5t-54.5 -30.5 q-53 0 -53 68zM442 1368q0 52 20.5 81.5t55.5 29.5q51 0 51 -66q0 -52 -19.5 -82.5t-53.5 -30.5q-26 0 -40 18t-14 50zM664 1405q39 72 77.5 161.5t55.5 149.5h117v-18q-26 -60 -82 -151.5t-111 -157.5h-57v16z" />
<glyph unicode="&#x3b1;" horiz-adv-x="1137" d="M655 1104q113 0 185.5 -57t99.5 -173h6q52 143 105 213h82q-36 -61 -77 -183.5t-75 -278.5q-73 -344 -79.5 -390.5t-6.5 -70.5q0 -98 76 -98q39 0 94 22v-78q-60 -30 -123 -30q-77 0 -112 44.5t-35 116.5q0 55 12 133h-6q-164 -294 -418 -294q-281 0 -281 374 q0 197 75 376t200.5 276.5t277.5 97.5zM406 70q92 0 181.5 61.5t158 165.5t105 227t36.5 217q0 79 -26 141.5t-77 99t-127 36.5q-124 0 -224 -82t-164 -245.5t-64 -325.5q0 -152 50 -223.5t151 -71.5z" />
<glyph unicode="&#x3b2;" horiz-adv-x="1151" d="M770 1567q155 0 247.5 -88t92.5 -240q0 -115 -45 -205t-124.5 -146t-184.5 -73q125 -31 193.5 -127.5t68.5 -238.5q0 -136 -57.5 -243t-164 -166.5t-249.5 -59.5q-69 0 -128 14t-108 36.5t-118 73.5l-65 -296l-65 -300h-94l348 1618q50 233 161 337t292 104zM756 1481 q-96 0 -164 -40.5t-111.5 -117t-72.5 -215.5l-197 -920q70 -56 158 -89t174 -33q170 0 271 101.5t101 274.5q0 334 -362 334h-53l16 82h59q211 0 322 95.5t111 279.5q0 118 -66.5 183t-185.5 65z" />
<glyph unicode="&#x3b3;" horiz-adv-x="883" d="M221 -492h-102q27 206 188 506l-184 1073h100l103 -636q19 -113 45 -342h4q69 151 168 329l352 649h100l-567 -1042q-177 -321 -207 -537z" />
<glyph unicode="&#x3b4;" horiz-adv-x="1096" d="M627 958q-205 155 -205 322q0 129 92 208t242 79q161 0 334 -115l-46 -78q-160 107 -299 107q-104 0 -162.5 -55.5t-58.5 -143.5q0 -47 17.5 -87.5t50.5 -79.5t123 -114q105 -87 156 -156.5t77.5 -150t26.5 -176.5q0 -148 -65.5 -276t-180 -195t-260.5 -67 q-180 0 -285.5 107t-105.5 282q0 456 549 589zM479 66q119 0 208 58.5t137 161.5t48 232q0 115 -40.5 207t-137.5 172q-273 -68 -393.5 -195.5t-120.5 -322.5q0 -147 79 -230t220 -83z" />
<glyph unicode="&#x3b5;" horiz-adv-x="840" d="M621 524h-113q-168 0 -257 -66.5t-89 -191.5q0 -95 62.5 -147.5t178.5 -52.5q82 0 175.5 24.5t162.5 63.5v-93q-68 -35 -159 -58t-187 -23q-157 0 -246.5 74t-89.5 204q0 132 82 217.5t228 106.5v4q-72 25 -116 79.5t-44 135.5q0 138 103 220.5t276 82.5q162 0 289 -66 l-39 -86q-51 29 -120.5 46.5t-131.5 17.5q-133 0 -204 -55.5t-71 -157.5q0 -91 63 -139t179 -48h86z" />
<glyph unicode="&#x3b6;" horiz-adv-x="905" d="M117 385q0 227 186 480.5t627 613.5q-96 -6 -230 -6h-268l19 83h602l-19 -83l-191 -172q-226 -200 -358.5 -349t-198 -287t-65.5 -268q0 -85 23 -142t69.5 -96.5t157.5 -84.5q102 -41 145.5 -72t64.5 -70t21 -92q0 -64 -35 -128t-124 -150h-117q90 83 135 145t45 119 q0 50 -36.5 86.5t-155.5 81.5q-161 59 -229 150.5t-68 240.5z" />
<glyph unicode="&#x3b7;" horiz-adv-x="1153" d="M657 -492l256 1184q21 92 21 156q0 80 -43.5 125t-134.5 45q-112 0 -210.5 -67t-166 -187.5t-103.5 -286.5l-102 -477h-98l231 1087h82l-37 -221h6q164 238 416 238q130 0 195 -64t65 -184q0 -70 -24 -182l-256 -1166h-97z" />
<glyph unicode="&#x3b8;" horiz-adv-x="1079" d="M471 66q169 0 284.5 168t194.5 536h-696q-12 -55 -23.5 -158t-11.5 -172q0 -190 61.5 -282t190.5 -92zM741 1495q-331 0 -469 -635h693q26 150 26 283q0 182 -60 267t-190 85zM461 -20q-170 0 -254 113t-84 341q0 141 28.5 313t85.5 341.5t132.5 277.5t171 160.5 t213.5 52.5q331 0 331 -432q0 -133 -28 -311t-84.5 -351.5t-129.5 -283t-167.5 -165.5t-214.5 -56z" />
<glyph unicode="&#x3b9;" horiz-adv-x="559" d="M346 68q55 0 131 20v-84q-84 -24 -149 -24q-100 0 -153.5 57.5t-53.5 155.5q0 83 29 206l147 688h98l-153 -716q-23 -103 -23 -164q0 -139 127 -139z" />
<glyph unicode="&#x3ba;" horiz-adv-x="944" d="M270 477l609 610h125l-474 -469l297 -618h-106l-264 559l-205 -188l-80 -371h-96l229 1087h96l-65 -311l-70 -299h4z" />
<glyph unicode="&#x3bb;" horiz-adv-x="895" d="M528 965q-49 -107 -125 -240l-415 -725h-103q155 272 314 543.5t315 546.5l-20 192q-10 105 -50.5 154t-128.5 49q-39 0 -104 -17l-8 82q51 19 125 19q119 0 180.5 -63t77.5 -212l110 -1112q7 -63 25.5 -93t60.5 -30q32 0 68 13v-78q-39 -14 -88 -14q-78 0 -114.5 43 t-45.5 139l-47 495q-15 170 -20 308h-7z" />
<glyph unicode="&#x3bc;" horiz-adv-x="1171" d="M238 242q0 -82 48.5 -127t135.5 -45q110 0 207 64.5t162.5 182.5t101.5 285l104 485h99l-234 -1087h-78l29 205h-6q-164 -221 -404 -221q-85 0 -139 32.5t-76 89.5h-6q-18 -132 -51 -284l-63 -314h-97l338 1579h101l-152 -698q-20 -96 -20 -147z" />
<glyph unicode="&#x3bd;" horiz-adv-x="936" d="M121 1087h98l70 -571q27 -226 45 -426q202 167 346.5 423.5t208.5 573.5h98q-68 -345 -221 -610.5t-404 -476.5h-100z" />
<glyph unicode="&#x3be;" horiz-adv-x="874" d="M795 782h-72q-164 0 -296 -51t-197.5 -139.5t-65.5 -210.5q0 -103 53 -171t195 -118q122 -43 168 -73.5t69 -73t23 -103.5t-38 -129t-108 -129h-120q161 132 161 260q0 48 -31 80t-102 59q-125 45 -185 75.5t-100.5 71t-65 99t-24.5 144.5q0 175 119.5 294t333.5 158v4 q-118 22 -179 90t-61 175q0 134 100.5 237t284.5 150q-115 -8 -202 -8h-109l19 83h602l-21 -83h-33q-131 0 -266 -53.5t-206.5 -136t-71.5 -183.5q0 -117 94.5 -175.5t273.5 -58.5h78z" />
<glyph unicode="&#x3bf;" horiz-adv-x="1124" d="M649 1108q180 0 278.5 -108.5t98.5 -299.5q0 -197 -71.5 -368.5t-195.5 -261.5t-286 -90q-184 0 -279.5 109.5t-95.5 313.5q0 191 73 358t197 257t281 90zM641 1022q-124 0 -223 -78.5t-158 -225t-59 -310.5q0 -342 282 -342q127 0 225.5 77.5t157 228t58.5 330.5 q0 154 -73 237t-210 83z" />
<glyph unicode="&#x3c0;" horiz-adv-x="1106" d="M866 61q43 0 90 13v-82q-43 -12 -104 -12q-72 0 -115 43t-43 106t21 154l153 723h-467l-213 -1006h-98l213 1006h-213l14 63l187 18h885l-19 -81h-192l-156 -742q-16 -75 -16 -121q0 -35 19 -58.5t54 -23.5z" />
<glyph unicode="&#x3c1;" horiz-adv-x="1137" d="M668 1108q173 0 271.5 -107.5t98.5 -300.5q0 -201 -72 -372.5t-193 -259.5t-275 -88q-89 0 -160 28t-148 98q-28 -152 -124 -598h-99l250 1174q95 426 451 426zM653 1022q-135 0 -220 -90t-132 -305l-92 -434q127 -127 287 -127q126 0 223 77.5t157 229.5t60 329 q0 154 -73 237t-210 83z" />
<glyph unicode="&#x3c2;" horiz-adv-x="918" d="M877 971q-110 47 -218 47q-129 0 -233 -78.5t-162.5 -219t-58.5 -306.5q0 -94 24 -156.5t75 -106.5t169 -90q136 -52 182.5 -104t46.5 -135q0 -129 -145 -260h-121q75 65 119.5 125t44.5 118q0 61 -37.5 97.5t-144.5 77.5q-175 64 -245.5 163t-70.5 269q0 195 75 359 t201 248.5t286 84.5q131 0 241 -43z" />
<glyph unicode="&#x3c3;" horiz-adv-x="1137" d="M1014 633q0 -307 -132 -480t-372 -173q-192 0 -299 123t-107 341q0 197 77 345t216.5 223t333.5 75h461l-18 -81h-240q35 -70 57.5 -173.5t22.5 -199.5zM735 1006q-252 0 -390 -145t-138 -406q0 -188 82 -288.5t235 -100.5q119 0 206 66t134 193t47 314q0 83 -18.5 186 t-48.5 181h-109z" />
<glyph unicode="&#x3c4;" horiz-adv-x="770" d="M473 68q61 0 152 26v-86q-17 -7 -72.5 -17.5t-97.5 -10.5q-99 0 -153 55t-54 158q0 82 28 206l130 607h-334l14 63l184 18h580l-16 -81h-330l-135 -635q-23 -107 -23 -164q0 -65 32 -102t95 -37z" />
<glyph unicode="&#x3c5;" horiz-adv-x="1139" d="M483 -20q-162 0 -252 91.5t-90 254.5q0 105 37 270l105 491h102l-102 -479q-29 -141 -34 -184.5t-5 -89.5q0 -132 64 -200t188 -68q230 0 346 258.5t116 762.5h103q0 -1107 -578 -1107z" />
<glyph unicode="&#x3c6;" horiz-adv-x="1274" d="M459 -23q-191 20 -295.5 140t-104.5 319q0 187 77 349.5t247 320.5l63 -64q-149 -136 -217.5 -278t-68.5 -322q0 -170 81.5 -267t235.5 -112l160 742q31 149 109 226t194 77q131 0 204 -95t73 -261q0 -226 -80 -401t-229.5 -271.5t-354.5 -104.5l-98 -467h-97zM1120 741 q0 134 -48.5 205.5t-135.5 71.5q-82 0 -133 -56t-76 -176l-156 -723q170 10 294.5 96t189.5 236.5t65 345.5z" />
<glyph unicode="&#x3c7;" horiz-adv-x="993" d="M223 1098q63 0 100 -21.5t58 -61t35 -145.5l55 -452l481 669h107l-567 -788l69 -524q12 -100 44 -139t91 -39q47 0 86 14v-82q-53 -21 -112 -21q-177 0 -203 230l-57 471l-506 -701h-119l606 822l-65 512q-11 85 -23.5 112.5t-34.5 41.5t-57 14q-38 0 -78 -17l-18 84 q20 8 53.5 14.5t54.5 6.5z" />
<glyph unicode="&#x3c8;" horiz-adv-x="1364" d="M950 1556q-237 -1094 -317 -1478q286 17 418.5 257.5t132.5 751.5h102q0 -391 -74.5 -624t-224 -347.5t-373.5 -123.5l-102 -484h-94l102 484q-180 17 -273 120.5t-93 278.5q0 96 30 238l99 458h102l-98 -454q-31 -139 -31 -232q0 -293 283 -323q118 547 184.5 851.5 t132.5 626.5h94z" />
<glyph unicode="&#x3c9;" horiz-adv-x="1364" d="M338 -20q-130 0 -200 95t-70 269q0 192 68 382t204 361h102q-141 -196 -208.5 -376t-67.5 -363q0 -138 47 -209t139 -71q86 0 148.5 68t97.5 224l72 332h96l-66 -309q-18 -90 -18 -141q0 -84 42 -129t120 -45q157 0 254.5 186.5t97.5 482.5q0 199 -31 350h92 q14 -56 25.5 -156t11.5 -198q0 -215 -60 -394.5t-162 -269t-236 -89.5q-88 0 -149.5 47t-78.5 131q-93 -178 -270 -178z" />
<glyph unicode="&#x3ca;" horiz-adv-x="559" d="M346 68q55 0 131 20v-84q-84 -24 -149 -24q-100 0 -153.5 57.5t-53.5 155.5q0 83 29 206l147 688h98l-153 -716q-23 -103 -23 -164q0 -139 127 -139zM528 1366q0 49 20.5 78t56.5 29q54 0 54 -64q0 -48 -21 -77t-55 -29q-55 0 -55 63zM184 1366q0 49 20.5 78t56.5 29 q54 0 54 -64q0 -48 -21 -77t-55 -29q-55 0 -55 63z" />
<glyph unicode="&#x3cb;" horiz-adv-x="1139" d="M483 -20q-162 0 -252 91.5t-90 254.5q0 105 37 270l105 491h102l-102 -479q-29 -141 -34 -184.5t-5 -89.5q0 -132 64 -200t188 -68q230 0 346 258.5t116 762.5h103q0 -1107 -578 -1107zM829 1366q0 49 20.5 78t56.5 29q54 0 54 -64q0 -48 -21 -77t-55 -29q-55 0 -55 63z M485 1366q0 49 20.5 78t56.5 29q54 0 54 -64q0 -48 -21 -77t-55 -29q-55 0 -55 63z" />
<glyph unicode="&#x3cc;" horiz-adv-x="1124" d="M649 1108q180 0 278.5 -108.5t98.5 -299.5q0 -197 -71.5 -368.5t-195.5 -261.5t-286 -90q-184 0 -279.5 109.5t-95.5 313.5q0 191 73 358t197 257t281 90zM641 1022q-124 0 -223 -78.5t-158 -225t-59 -310.5q0 -342 282 -342q127 0 225.5 77.5t157 228t58.5 330.5 q0 154 -73 237t-210 83zM642 1266q57 81 116.5 191.5t94.5 205.5h111v-31q-29 -70 -108.5 -191.5t-147.5 -199.5h-66v25z" />
<glyph unicode="&#x3cd;" horiz-adv-x="1139" d="M483 -20q-162 0 -252 91.5t-90 254.5q0 105 37 270l105 491h102l-102 -479q-29 -141 -34 -184.5t-5 -89.5q0 -132 64 -200t188 -68q230 0 346 258.5t116 762.5h103q0 -1107 -578 -1107zM627 1266q57 81 116.5 191.5t94.5 205.5h111v-31q-29 -70 -108.5 -191.5 t-147.5 -199.5h-66v25z" />
<glyph unicode="&#x3ce;" horiz-adv-x="1364" d="M338 -20q-130 0 -200 95t-70 269q0 192 68 382t204 361h102q-141 -196 -208.5 -376t-67.5 -363q0 -138 47 -209t139 -71q86 0 148.5 68t97.5 224l72 332h96l-66 -309q-18 -90 -18 -141q0 -84 42 -129t120 -45q157 0 254.5 186.5t97.5 482.5q0 199 -31 350h92 q14 -56 25.5 -156t11.5 -198q0 -215 -60 -394.5t-162 -269t-236 -89.5q-88 0 -149.5 47t-78.5 131q-93 -178 -270 -178zM792 1266q57 81 116.5 191.5t94.5 205.5h111v-31q-29 -70 -108.5 -191.5t-147.5 -199.5h-66v25z" />
<glyph unicode="&#x3d1;" horiz-adv-x="1036" d="M942 883q-15 -169 -73.5 -349.5t-145.5 -306t-192.5 -186.5t-227.5 -61q-130 0 -203 72.5t-73 205.5q0 103 58 243q68 163 77.5 196t9.5 59q0 31 -18.5 45t-38.5 14q-19 0 -48.5 -8t-54.5 -23l15 90q54 27 108 27q56 0 93.5 -38.5t37.5 -96.5q0 -76 -51 -191 q-47 -107 -68.5 -179t-21.5 -140q0 -87 50 -137.5t140 -50.5q133 0 244 101t187 295.5t98 418.5h-23q-253 0 -378.5 89.5t-125.5 274.5q0 147 87.5 238.5t226.5 91.5q157 0 239 -124.5t82 -362.5l-4 -125h144l-15 -82h-135zM418 1251q0 -101 41 -163t124 -92.5t236 -30.5h29 q4 42 4 106q0 214 -55.5 317t-167.5 103q-96 0 -153.5 -64.5t-57.5 -175.5z" />
<glyph unicode="&#x3d2;" horiz-adv-x="975" d="M494 645q128 239 245.5 435t175.5 267t109 99.5t111 28.5q29 0 49.5 -5t34.5 -8l-27 -88q-28 10 -59 10q-59 0 -111.5 -52.5t-129.5 -172.5t-176 -287.5t-192 -341.5l-108 -530h-105l119 545l-237 917h100z" />
<glyph unicode="&#x3d6;" horiz-adv-x="1464" d="M391 -20q-130 0 -198 90.5t-68 273.5q0 173 68 344.5t192 317.5h-270l14 63l186 18h1215l-19 -81h-247q15 -69 29 -156t14 -205q0 -182 -58 -344.5t-155 -241.5t-226 -79q-86 0 -143 47t-76 131q-94 -178 -258 -178zM1206 649q0 191 -32 357h-687q-260 -327 -260 -654 q0 -284 179 -284q82 0 140 68t93 224l59 275h97l-54 -252q-18 -99 -18 -137q0 -80 40.5 -129t110.5 -49q93 0 167.5 71.5t119.5 212t45 297.5z" />
<glyph unicode="&#x400;" horiz-adv-x="1067" d="M829 0h-727l310 1462h727l-21 -94h-624l-117 -553h590l-21 -94h-588l-135 -627h627zM891 1579h-66q-50 52 -114 144.5t-99 162.5v21h115q46 -129 164 -303v-25z" />
<glyph unicode="&#x401;" horiz-adv-x="1067" d="M829 0h-727l310 1462h727l-21 -94h-624l-117 -553h590l-21 -94h-588l-135 -627h627zM902 1704q0 49 20.5 78t56.5 29q54 0 54 -64q0 -48 -21 -77t-55 -29q-55 0 -55 63zM558 1704q0 49 20.5 78t56.5 29q54 0 54 -64q0 -48 -21 -77t-55 -29q-55 0 -55 63z" />
<glyph unicode="&#x402;" horiz-adv-x="1292" d="M731 -14q-59 0 -129 14v98q14 -3 48.5 -10.5t80.5 -7.5q121 0 183.5 60t89.5 210l16 90q12 64 12 133q0 109 -59.5 159t-190.5 50h-301l-164 -782h-102l289 1368h-307l20 94h850l-18 -94h-443l-106 -496h305q167 0 248.5 -76.5t81.5 -211.5q0 -75 -15 -148l-24 -129 q-32 -164 -120 -242.5t-245 -78.5z" />
<glyph unicode="&#x403;" horiz-adv-x="981" d="M205 0h-103l310 1462h708l-20 -94h-604zM664 1600q66 51 150.5 142t129.5 165h137v-23q-51 -66 -157.5 -158.5t-192.5 -146.5h-67v21z" />
<glyph unicode="&#x404;" horiz-adv-x="1169" d="M961 1389q-241 0 -411 -151t-239 -415h676l-18 -94h-678q-17 -85 -17 -190q0 -226 111.5 -346.5t316.5 -120.5q140 0 304 51v-94q-156 -49 -316 -49q-252 0 -386 143t-134 412q0 258 101 479t280.5 345t409.5 124q177 0 307 -68l-45 -90q-113 64 -262 64z" />
<glyph unicode="&#x405;" horiz-adv-x="1020" d="M895 403q0 -126 -65.5 -224.5t-179.5 -148.5t-269 -50q-88 0 -172.5 17t-171.5 58v109q163 -92 348 -92q188 0 295.5 86.5t107.5 232.5q0 61 -17 104.5t-52.5 78.5t-91 68t-131.5 75q-150 76 -209.5 164t-59.5 206t59 207.5t165 139t237 49.5q99 0 180 -17.5t168 -60.5 l-32 -94q-66 40 -151.5 63t-164.5 23q-163 0 -259.5 -82.5t-96.5 -218.5q0 -103 49 -170t182 -133q154 -79 213.5 -130t89 -113t29.5 -147z" />
<glyph unicode="&#x406;" horiz-adv-x="504" d="M102 0l310 1462h98l-309 -1462h-99z" />
<glyph unicode="&#x407;" horiz-adv-x="504" d="M102 0l310 1462h98l-309 -1462h-99zM604 1704q0 49 20.5 78t56.5 29q54 0 54 -64q0 -48 -21 -77t-55 -29q-55 0 -55 63zM260 1704q0 49 20.5 78t56.5 29q54 0 54 -64q0 -48 -21 -77t-55 -29q-55 0 -55 63z" />
<glyph unicode="&#x408;" horiz-adv-x="477" d="M-180 -360q-48 0 -88 8t-56 16l11 92q57 -20 137 -20q213 0 262 241l309 1485h105l-314 -1491q-35 -170 -125 -250.5t-241 -80.5z" />
<glyph unicode="&#x409;" horiz-adv-x="1817" d="M1694 465q0 -223 -140 -344t-391 -121h-362l289 1368h-371l-40 -137q-132 -452 -217 -706t-142 -354.5t-129 -147t-173 -46.5q-54 0 -102 17v96q45 -16 102 -16q78 0 132.5 44t104 143.5t141 383t245.5 817.5h573l-139 -651h232q187 0 287 -89.5t100 -256.5zM1057 721 l-135 -631h239q205 0 315.5 92t110.5 277q0 134 -74.5 198t-224.5 64h-231z" />
<glyph unicode="&#x40a;" horiz-adv-x="1894" d="M1772 465q0 -223 -140 -344t-391 -121h-362l151 719h-676l-149 -719h-103l310 1462h102l-139 -649h676l137 649h104l-139 -649h231q186 0 287 -90.5t101 -257.5zM1135 719l-136 -629h240q204 0 315 92t111 277q0 132 -73.5 196t-225.5 64h-231z" />
<glyph unicode="&#x40b;" horiz-adv-x="1313" d="M924 0l84 379q28 117 28 184q0 115 -59.5 167t-194.5 52h-301l-164 -782h-102l289 1368h-307l20 94h850l-18 -94h-443l-106 -496h305q332 0 332 -294q0 -41 -6.5 -82.5t-108.5 -495.5h-98z" />
<glyph unicode="&#x40c;" horiz-adv-x="1106" d="M1040 0h-129l-555 729l-151 -729h-103l310 1462h102l-158 -727l787 727h143l-809 -733zM721 1600q66 51 150.5 142t129.5 165h137v-23q-51 -66 -157.5 -158.5t-192.5 -146.5h-67v21z" />
<glyph unicode="&#x40d;" horiz-adv-x="1368" d="M412 1462h102l-186 -878q-79 -346 -95 -406l1035 1284h110l-309 -1462h-100q120 569 184.5 876t99.5 431l-1050 -1307h-101zM969 1579h-66q-50 52 -114 144.5t-99 162.5v21h115q46 -129 164 -303v-25z" />
<glyph unicode="&#x40e;" horiz-adv-x="1145" d="M133 -20q-93 0 -156 30v111q67 -37 162 -37q111 0 203 71.5t209 264.5l-318 1042h105l194 -651q13 -41 89 -319q33 61 88.5 156t507.5 814h116l-723 -1140q-112 -180 -223.5 -261t-253.5 -81zM1128 1866q-17 -137 -110.5 -212t-243.5 -75q-140 0 -205.5 58t-65.5 155 q0 38 13 74h82q-8 -45 -8 -62q0 -68 42.5 -103.5t143.5 -35.5q231 0 258 201h94z" />
<glyph unicode="&#x40f;" horiz-adv-x="1374" d="M412 1462h100l-289 -1366h758l289 1366h102l-309 -1462h-424l-76 -356h-100l78 356h-439z" />
<glyph unicode="&#x410;" horiz-adv-x="1059" d="M805 520h-512l-287 -520h-117l822 1468h67l201 -1468h-105zM793 612l-39 291q-31 242 -39 402q-30 -63 -64.5 -130t-306.5 -563h449z" />
<glyph unicode="&#x411;" horiz-adv-x="1112" d="M995 465q0 -222 -139 -343.5t-391 -121.5h-363l310 1462h680l-21 -94h-575l-119 -557h231q187 0 287 -89.5t100 -256.5zM358 721l-135 -631h240q204 0 315 92t111 277q0 134 -74.5 198t-224.5 64h-232z" />
<glyph unicode="&#x412;" horiz-adv-x="1202" d="M412 1462h379q190 0 290.5 -84t100.5 -241q0 -153 -90 -249t-254 -124v-4q125 -31 188.5 -113.5t63.5 -204.5q0 -205 -140.5 -323.5t-390.5 -118.5h-457zM377 811h278q206 0 313 81t107 238q0 119 -78 180.5t-229 61.5h-272zM358 721l-135 -631h342q201 0 309.5 87.5 t108.5 256.5q0 145 -90 216t-275 71h-260z" />
<glyph unicode="&#x413;" horiz-adv-x="981" d="M205 0h-103l310 1462h708l-20 -94h-604z" />
<glyph unicode="&#x414;" horiz-adv-x="1165" d="M1108 94l-98 -450h-105l80 356h-967l-81 -356h-101l105 450h79q178 207 347 555.5t323 812.5h539l-291 -1368h170zM762 1368q-146 -435 -308.5 -765.5t-314.5 -508.5h697l270 1274h-344z" />
<glyph unicode="&#x415;" horiz-adv-x="1067" d="M829 0h-727l310 1462h727l-21 -94h-624l-117 -553h590l-21 -94h-588l-135 -627h627z" />
<glyph unicode="&#x416;" horiz-adv-x="1491" d="M641 760l-424 702h125l414 -704l147 704h103l-152 -706l692 706h140l-717 -725l434 -737h-123l-430 737l-154 -737h-102l158 739l-699 -739h-141z" />
<glyph unicode="&#x417;" horiz-adv-x="1020" d="M987 1169q0 -160 -91 -263.5t-267 -145.5v-4q130 -23 199 -110.5t69 -227.5q0 -130 -67.5 -232.5t-187 -154t-284.5 -51.5q-211 0 -389 79v117q183 -106 402 -106q204 0 314 93.5t110 260.5q0 287 -373 287h-182l18 96h178q131 0 237 45t158 123.5t52 183.5 q0 114 -67 176t-191 62q-168 0 -340 -119l-54 76q190 129 406 129q165 0 257.5 -82t92.5 -232z" />
<glyph unicode="&#x418;" horiz-adv-x="1368" d="M412 1462h102l-186 -878q-79 -346 -95 -406l1035 1284h110l-309 -1462h-100q120 569 184.5 876t99.5 431l-1050 -1307h-101z" />
<glyph unicode="&#x419;" horiz-adv-x="1368" d="M412 1462h102l-186 -878q-79 -346 -95 -406l1035 1284h110l-309 -1462h-100q120 569 184.5 876t99.5 431l-1050 -1307h-101zM1253 1866q-17 -137 -110.5 -212t-243.5 -75q-140 0 -205.5 58t-65.5 155q0 38 13 74h82q-8 -45 -8 -62q0 -68 42.5 -103.5t143.5 -35.5 q231 0 258 201h94z" />
<glyph unicode="&#x41a;" horiz-adv-x="1106" d="M1040 0h-129l-555 729l-151 -729h-103l310 1462h102l-158 -727l787 727h143l-809 -733z" />
<glyph unicode="&#x41b;" horiz-adv-x="1266" d="M719 1368l-40 -137q-132 -452 -217 -706t-142 -354.5t-129 -147t-173 -46.5q-54 0 -102 17v96q45 -16 102 -16q78 0 132.5 44t104 143.5t141 383t245.5 817.5h633l-309 -1462h-101l289 1368h-434z" />
<glyph unicode="&#x41c;" horiz-adv-x="1669" d="M772 205l733 1257h150l-301 -1462h-101l191 901q79 369 100 447h-6l-780 -1348h-51l-222 1348h-6q-20 -154 -78 -426l-196 -922h-96l309 1462h143l205 -1257h6z" />
<glyph unicode="&#x41d;" horiz-adv-x="1366" d="M1063 0h-100l151 719h-760l-149 -719h-103l310 1462h102l-139 -649h760l137 649h100z" />
<glyph unicode="&#x41e;" horiz-adv-x="1464" d="M1403 911q0 -255 -94 -481.5t-252 -338t-365 -111.5q-250 0 -385 149t-135 430q0 262 93 477.5t255 331t373 115.5q247 0 378.5 -148.5t131.5 -423.5zM879 1389q-174 0 -308.5 -101t-214.5 -298t-80 -417q0 -245 109.5 -373t319.5 -128q169 0 300 98.5t210 300t79 430.5 q0 240 -104.5 364t-310.5 124z" />
<glyph unicode="&#x41f;" horiz-adv-x="1374" d="M1063 0h-100l288 1366h-757l-289 -1366h-103l310 1462h960z" />
<glyph unicode="&#x420;" horiz-adv-x="1145" d="M1145 1102q0 -500 -610 -500h-201l-129 -602h-103l310 1462h315q202 0 310 -92.5t108 -267.5zM350 694h191q252 0 373.5 96.5t121.5 305.5q0 274 -329 274h-211z" />
<glyph unicode="&#x421;" horiz-adv-x="1169" d="M961 1389q-197 0 -351.5 -104.5t-245 -304.5t-90.5 -441q0 -225 110.5 -346t317.5 -121q140 0 304 51v-94q-156 -49 -316 -49q-252 0 -386 145t-134 410q0 266 104.5 488t284.5 341t402 119q177 0 307 -68l-45 -90q-55 30 -124.5 47t-137.5 17z" />
<glyph unicode="&#x422;" horiz-adv-x="985" d="M438 0h-102l289 1368h-432l20 94h973l-19 -94h-440z" />
<glyph unicode="&#x423;" horiz-adv-x="1145" d="M133 -20q-93 0 -156 30v111q67 -37 162 -37q111 0 203 71.5t209 264.5l-318 1042h105l194 -651q13 -41 89 -319q33 61 88.5 156t507.5 814h116l-723 -1140q-112 -180 -223.5 -261t-253.5 -81z" />
<glyph unicode="&#x424;" horiz-adv-x="1446" d="M561 -20l49 233q-144 8 -245.5 69.5t-155 161.5t-53.5 230q0 177 82.5 318.5t236 217.5t365.5 82l41 191h100l-39 -191q218 -14 334.5 -129.5t116.5 -316.5q0 -187 -84 -330.5t-237 -219.5t-357 -83l-51 -233h-103zM733 305q264 8 409.5 147t145.5 388q0 163 -92 257.5 t-274 100.5zM819 1198q-171 -3 -296.5 -65t-195 -180t-69.5 -271q0 -174 100 -273.5t273 -103.5z" />
<glyph unicode="&#x425;" horiz-adv-x="971" d="M879 0h-107l-254 678l-526 -678h-127l608 766l-272 696h106l240 -626l483 626h119l-555 -719z" />
<glyph unicode="&#x426;" horiz-adv-x="1423" d="M1272 1462h100l-289 -1368h168l-98 -450h-104l79 356h-1026l310 1462h100l-289 -1368h758z" />
<glyph unicode="&#x427;" horiz-adv-x="1192" d="M788 0l132 621q-219 -91 -408 -91q-146 0 -226.5 69.5t-80.5 201.5q0 64 22 164l105 497h102l-102 -483q-25 -116 -25 -172q0 -92 57 -139t162 -47q195 0 412 90l160 751h100l-309 -1462h-101z" />
<glyph unicode="&#x428;" horiz-adv-x="1905" d="M102 0l310 1462h100l-289 -1368h600l291 1368h100l-288 -1368h602l291 1368h100l-309 -1462h-1508z" />
<glyph unicode="&#x429;" horiz-adv-x="1970" d="M1798 94l-98 -450h-105l80 356h-1573l310 1462h100l-289 -1368h600l291 1368h100l-288 -1368h602l291 1368h100l-289 -1368h168z" />
<glyph unicode="&#x42a;" horiz-adv-x="1262" d="M1139 465q0 -223 -140 -344t-391 -121h-362l289 1368h-342l20 94h446l-139 -651h232q187 0 287 -89.5t100 -256.5zM502 721l-135 -631h239q205 0 315.5 92t110.5 277q0 134 -74.5 198t-224.5 64h-231z" />
<glyph unicode="&#x42b;" horiz-adv-x="1536" d="M995 465q0 -222 -139 -343.5t-391 -121.5h-363l310 1462h104l-139 -651h231q187 0 287 -89.5t100 -256.5zM358 721l-135 -631h240q204 0 315 92t111 277q0 134 -74.5 198t-224.5 64h-232zM1243 0h-102l309 1462h102z" />
<glyph unicode="&#x42c;" horiz-adv-x="1118" d="M995 465q0 -222 -139 -343.5t-391 -121.5h-363l310 1462h104l-139 -651h231q187 0 287 -89.5t100 -256.5zM358 721l-135 -631h240q204 0 315 92t111 277q0 134 -74.5 198t-224.5 64h-232z" />
<glyph unicode="&#x42d;" horiz-adv-x="1169" d="M365 72q254 0 410.5 168t205.5 493h-666l17 96h659l2 72q0 239 -105.5 363.5t-309.5 124.5q-128 0 -306 -64l-26 94q114 38 195.5 51t150.5 13q250 0 380 -148.5t130 -423.5q0 -272 -95.5 -492t-259.5 -329.5t-382 -109.5q-206 0 -351 75v109q184 -92 351 -92z" />
<glyph unicode="&#x42e;" horiz-adv-x="2025" d="M1964 911q0 -245 -88 -469.5t-248 -343t-375 -118.5q-250 0 -385 149t-135 430q0 96 8 160h-387l-149 -719h-103l310 1462h102l-139 -649h383q40 203 136.5 354.5t240.5 233.5t319 82q247 0 378.5 -148.5t131.5 -423.5zM1440 1389q-173 0 -307.5 -100.5t-214.5 -299 t-80 -416.5q0 -245 109.5 -373t318.5 -128q169 0 300 98.5t210 300t79 430.5q0 240 -104.5 364t-310.5 124z" />
<glyph unicode="&#x42f;" horiz-adv-x="1118" d="M588 635l-514 -635h-125l532 662q-105 40 -165 132.5t-60 211.5q0 219 143 337.5t402 118.5h332l-310 -1462h-102l133 635h-266zM1012 1370h-197q-229 0 -343 -91.5t-114 -266.5q0 -133 82 -210t230 -77h204z" />
<glyph unicode="&#x430;" horiz-adv-x="1133" d="M655 1104q232 0 279 -219h6l59 202h80l-229 -1087h-82l45 274h-6q-84 -142 -187 -218t-237 -76q-281 0 -281 374q0 197 75 376t200.5 276.5t277.5 97.5zM406 70q89 0 177.5 62t159 166t107.5 230t37 213q0 79 -26 141.5t-77 99t-127 36.5q-124 0 -224 -82t-164 -245.5 t-64 -325.5q0 -152 50 -223.5t151 -71.5z" />
<glyph unicode="&#x431;" horiz-adv-x="1061" d="M98 434q0 240 67.5 465.5t178.5 363t252 183.5q93 30 259 63.5t241 44.5l12 -86l-63 -12q-306 -57 -429 -98q-133 -47 -231.5 -191.5t-153.5 -378.5h5q178 218 397 218q150 0 233.5 -99t83.5 -286q0 -188 -63.5 -340t-173.5 -226.5t-258 -74.5q-172 0 -264.5 117 t-92.5 337zM469 66q116 0 202 69t131.5 192t45.5 281t-62.5 234t-171.5 76q-101 0 -196.5 -58t-200.5 -192q-6 -35 -12 -107t-6 -119q0 -192 65.5 -284t204.5 -92z" />
<glyph unicode="&#x432;" horiz-adv-x="1065" d="M674 1104q148 0 229.5 -70.5t81.5 -195.5q0 -119 -73 -193.5t-207 -103.5v-4q104 -17 162.5 -76.5t58.5 -151.5q0 -94 -50.5 -169t-146 -117.5t-227.5 -42.5q-194 0 -296 114.5t-102 327.5q0 185 73 343.5t203.5 248.5t293.5 90zM205 487l-2 -73q0 -169 80.5 -256.5 t234.5 -87.5q144 0 224.5 62t80.5 169q0 186 -270 186h-348zM666 1018q-166 0 -290 -121.5t-163 -321.5h240q213 0 321.5 65t108.5 187q0 88 -56 139.5t-161 51.5z" />
<glyph unicode="&#x433;" horiz-adv-x="913" d="M231 1030q121 42 171 53t94.5 16t85.5 5q136 0 207 -58.5t71 -166.5q0 -111 -76.5 -189t-267.5 -147q-152 -56 -214.5 -95t-92 -87t-29.5 -115q0 -87 55 -133.5t162 -46.5q164 0 328 73v-90q-66 -26 -149 -47.5t-191 -21.5q-146 0 -226.5 68.5t-80.5 193.5 q0 82 35.5 144.5t108.5 113t227 110.5q148 59 203 93t80.5 73t25.5 90q0 75 -49 112.5t-140 37.5q-58 0 -141 -19.5t-168 -52.5z" />
<glyph unicode="&#x434;" horiz-adv-x="1112" d="M1032 975q0 -181 -51 -376t-137.5 -337t-196.5 -212t-237 -70q-147 0 -227.5 100t-80.5 274q0 184 74 355t196 265.5t269 94.5q217 0 283 -209h6q4 28 4 103q0 266 -72.5 395t-218.5 129q-53 0 -115.5 -19.5t-99.5 -42.5l-39 82q52 30 124 50t140 20q194 0 286.5 -148 t92.5 -454zM426 70q161 0 290.5 174t188.5 473q-70 266 -268 266q-116 0 -216.5 -87.5t-158 -231t-57.5 -299.5q0 -295 221 -295z" />
<glyph unicode="&#x435;" horiz-adv-x="928" d="M469 -20q-173 0 -270 109.5t-97 305.5q0 181 71 347t195.5 264t274.5 98q114 0 182 -61t68 -166q0 -181 -163.5 -276t-485.5 -95h-33q-6 -44 -6 -98q0 -165 74 -251.5t213 -86.5q132 0 276 73v-94q-140 -69 -299 -69zM631 1018q-131 0 -243.5 -115.5t-162.5 -308.5h49 q517 0 517 270q0 67 -43.5 110.5t-116.5 43.5z" />
<glyph unicode="&#x436;" horiz-adv-x="1581" d="M862 602h162q28 149 96.5 262t170.5 176.5t233 63.5q77 0 135 -17l-19 -92q-57 19 -127 19q-113 0 -206.5 -76t-150 -218.5t-56.5 -301.5q0 -177 59 -262.5t184 -85.5q53 0 113 10v-88q-72 -12 -121 -12q-334 0 -334 419q0 46 9 115h-166l-109 -514h-96l109 514h-158 q-30 -160 -100 -280.5t-173 -187t-233 -66.5q-75 0 -135 16l18 92q56 -18 127 -18q116 0 210 79t149 219.5t55 297.5q0 177 -59 262.5t-185 85.5q-52 0 -112 -10v88q72 12 120 12q334 0 334 -420q0 -50 -4 -82h164l104 485h95z" />
<glyph unicode="&#x437;" horiz-adv-x="799" d="M336 616q146 0 226.5 59.5t80.5 170.5q0 78 -52 125t-140 47q-61 0 -117.5 -17t-130.5 -63l-41 80q83 50 153 68t156 18q130 0 202 -65t72 -181q0 -113 -66 -187t-187 -98v-4q94 -20 142 -82.5t48 -158.5q0 -102 -51 -181.5t-145 -123t-222 -43.5q-86 0 -160 18.5 t-122 46.5v109q139 -86 290 -86q143 0 225.5 68.5t82.5 185.5q0 107 -64.5 154.5t-206.5 47.5h-84l21 92h90z" />
<glyph unicode="&#x438;" horiz-adv-x="1143" d="M381 1087l-152 -698q-22 -106 -22 -158q0 -74 47.5 -117.5t138.5 -43.5q110 0 207.5 65.5t164 187t99.5 279.5l105 485h98l-231 -1087h-80l28 205h-6q-167 -221 -403 -221q-131 0 -198.5 62t-67.5 181q0 60 22 170l150 690h100z" />
<glyph unicode="&#x439;" horiz-adv-x="1143" d="M381 1087l-152 -698q-22 -106 -22 -158q0 -74 47.5 -117.5t138.5 -43.5q110 0 207.5 65.5t164 187t99.5 279.5l105 485h98l-231 -1087h-80l28 205h-6q-167 -221 -403 -221q-131 0 -198.5 62t-67.5 181q0 60 22 170l150 690h100zM1059 1528q-17 -137 -110.5 -212 t-243.5 -75q-140 0 -205.5 58t-65.5 155q0 38 13 74h82q-8 -45 -8 -62q0 -68 42.5 -103.5t143.5 -35.5q231 0 258 201h94z" />
<glyph unicode="&#x43a;" horiz-adv-x="932" d="M858 1087h146l-607 -534l404 -553h-127l-391 549l-113 -549h-98l225 1087h98l-110 -524z" />
<glyph unicode="&#x43b;" horiz-adv-x="1028" d="M725 0h-96l215 1006q-38 6 -74 6q-92 0 -152 -39.5t-112 -134t-123 -306.5q-86 -255 -141 -354t-121 -143.5t-162 -44.5q-37 0 -61 8v90q29 -8 59 -8q74 0 122 38t94.5 131t121.5 312q84 249 146 348.5t143 143t200 43.5q81 0 172 -17z" />
<glyph unicode="&#x43c;" horiz-adv-x="1305" d="M944 0l197 930q-17 -32 -39 -70t-531 -860h-67l-146 723q-6 29 -17.5 99t-12.5 102l-193 -924h-90l231 1087h101l153 -798q27 -158 27 -170q26 55 62.5 117t529.5 851h117l-234 -1087h-88z" />
<glyph unicode="&#x43d;" horiz-adv-x="1208" d="M403 1087l-100 -479h625l104 479h101l-232 -1087h-102l110 516h-624l-111 -516h-100l233 1087h96z" />
<glyph unicode="&#x43e;" horiz-adv-x="1124" d="M649 1108q180 0 278.5 -108.5t98.5 -299.5q0 -197 -71.5 -368.5t-195.5 -261.5t-286 -90q-184 0 -279.5 109.5t-95.5 313.5q0 191 73 358t197 257t281 90zM641 1022q-124 0 -223 -78.5t-158 -225t-59 -310.5q0 -342 282 -342q127 0 225.5 77.5t157 228t58.5 330.5 q0 154 -73 237t-210 83z" />
<glyph unicode="&#x43f;" horiz-adv-x="1143" d="M764 0l149 692q21 92 21 156q0 80 -43.5 125t-134.5 45q-112 0 -210.5 -67t-166 -187.5t-103.5 -286.5l-102 -477h-98l231 1087h82l-37 -221h6q164 238 416 238q130 0 195 -64t65 -184q0 -70 -24 -182l-148 -674h-98z" />
<glyph unicode="&#x440;" horiz-adv-x="1163" d="M498 -16q-230 0 -279 219h-4q-13 -72 -149 -695h-99l336 1579h82l-45 -274h6q91 153 195.5 224t228.5 71q135 0 208 -92.5t73 -282.5q0 -195 -72 -371t-197.5 -277t-283.5 -101zM748 1018q-87 0 -174 -58.5t-161.5 -167.5t-110.5 -237.5t-36 -208.5q0 -125 61.5 -200.5 t168.5 -75.5q124 0 225 84t164 243.5t63 325.5q0 295 -200 295z" />
<glyph unicode="&#x441;" horiz-adv-x="887" d="M477 -20q-174 0 -274.5 110.5t-100.5 306.5q0 193 73.5 361.5t198.5 257t290 88.5q134 0 241 -43l-28 -90q-107 47 -218 47q-129 0 -232.5 -77t-162.5 -222t-59 -320q0 -158 73.5 -243.5t208.5 -85.5q71 0 131.5 13t131.5 46v-92q-116 -57 -273 -57z" />
<glyph unicode="&#x442;" horiz-adv-x="1751" d="M711 0l147 674q25 125 25 162q0 182 -154 182q-106 0 -200 -67.5t-159 -188.5t-100 -287l-100 -475h-98l231 1087h80l-33 -210h6q80 113 181.5 170t212.5 57q106 0 163 -67t60 -195h6q77 129 181 195.5t222 66.5q117 0 182.5 -61.5t65.5 -176.5q0 -29 -2.5 -56.5 t-19.5 -119.5l-152 -690h-100l149 680q25 120 25 176q0 77 -43 119.5t-119 42.5q-157 0 -277.5 -137.5t-168.5 -362.5l-109 -518h-102z" />
<glyph unicode="&#x443;" horiz-adv-x="920" d="M123 1087h100l82 -548q51 -351 55 -449h11q43 105 186 367l348 630h103l-713 -1290q-72 -127 -122.5 -178t-114 -81t-146.5 -30q-68 0 -129 21v92q71 -27 137 -27q80 0 147 49.5t130 164.5t100 184z" />
<glyph unicode="&#x444;" horiz-adv-x="1249" d="M786 1090q371 -39 371 -437q0 -185 -77 -339t-212 -234t-315 -80l-107 -492h-90l105 492q-169 14 -266 129t-97 309q0 185 72.5 333t208 231.5t315.5 84.5l99 469h94zM201 449q0 -164 70.5 -258t207.5 -105l197 913q-143 -3 -248 -68.5t-166 -196.5t-61 -285zM571 86 q142 0 249.5 66t171 201.5t63.5 291.5q0 165 -73 256t-214 98z" />
<glyph unicode="&#x445;" horiz-adv-x="922" d="M442 483l-393 -483h-121l471 559l-245 528h100l207 -462l373 462h120l-448 -534l258 -553h-98z" />
<glyph unicode="&#x446;" horiz-adv-x="1169" d="M381 1087l-152 -698q-22 -103 -22 -158q0 -74 47.5 -117.5t138.5 -43.5q110 0 207.5 65.5t164 187t99.5 279.5l105 485h98l-164 -765q-22 -104 -22 -170q0 -89 84 -89q23 0 63 7l-100 -435h-101l80 351q-67 13 -94 54.5t-27 119.5l2 51h-6q-84 -113 -187.5 -170 t-217.5 -57q-133 0 -200.5 62t-67.5 181q0 60 22 170l150 690h100z" />
<glyph unicode="&#x447;" horiz-adv-x="1096" d="M336 1087q-69 -318 -75.5 -362t-6.5 -72q0 -74 44.5 -117.5t141.5 -43.5q163 0 290 135.5t175 369.5l19 90h98l-234 -1087h-102q50 229 75 345.5t70 281.5h-8q-161 -221 -401 -221q-128 0 -197 60t-69 177q0 74 22 176l58 268h100z" />
<glyph unicode="&#x448;" horiz-adv-x="1751" d="M1036 1087l-147 -673q-25 -125 -25 -162q0 -92 38 -137t116 -45q105 0 199 67.5t159 188t101 286.5l102 475h96l-231 -1087h-80l33 211h-6q-161 -227 -387 -227q-110 0 -167.5 67t-60.5 195h-6q-74 -126 -178.5 -194t-226.5 -68q-117 0 -182.5 61.5t-65.5 175.5 q0 30 2.5 57.5t19.5 118.5l152 690h100l-149 -679q-25 -120 -25 -177q0 -75 42.5 -118t119.5 -43q156 0 278 139t168 364l109 514h102z" />
<glyph unicode="&#x449;" horiz-adv-x="1778" d="M1489 152q0 -89 84 -89q23 0 63 7l-100 -435h-100l80 351q-68 13 -95 53.5t-27 115.5l3 56h-6q-161 -227 -387 -227q-110 0 -167.5 67t-60.5 195h-6q-74 -126 -178.5 -194t-226.5 -68q-117 0 -182.5 61.5t-65.5 175.5q0 30 2.5 57.5t19.5 118.5l152 690h100l-149 -679 q-25 -120 -25 -177q0 -75 42.5 -118t119.5 -43q156 0 278 139t168 364l109 514h102l-147 -673q-25 -125 -25 -162q0 -92 38 -137t116 -45q105 0 199 67.5t159 188t101 286.5l102 475h96l-164 -765q-22 -104 -22 -170z" />
<glyph unicode="&#x44a;" horiz-adv-x="1139" d="M426 588l56 10q117 20 214 20q340 0 340 -280q0 -162 -111.5 -260t-303.5 -98q-163 0 -249.5 79t-86.5 232q0 98 30 248l101 467h-334l20 81h433zM678 532q-78 0 -147 -10.5t-123 -19.5q-25 -118 -25 -195q0 -122 57 -179.5t189 -57.5q142 0 223.5 69t81.5 191 q0 103 -64 152.5t-192 49.5z" />
<glyph unicode="&#x44b;" horiz-adv-x="1389" d="M1081 0h-98l234 1087h96zM283 588l56 10q117 20 214 20q340 0 340 -280q0 -162 -111.5 -260t-304.5 -98q-163 0 -249.5 79t-86.5 232q0 93 31 248l119 548h100zM535 532q-78 0 -147.5 -10.5t-123.5 -19.5q-24 -120 -24 -195q0 -122 56.5 -179.5t188.5 -57.5 q143 0 224.5 69t81.5 191q0 104 -64.5 153t-191.5 49z" />
<glyph unicode="&#x44c;" horiz-adv-x="995" d="M283 588l56 10q117 20 214 20q340 0 340 -280q0 -162 -111.5 -260t-304.5 -98q-163 0 -249.5 79t-86.5 232q0 93 31 248l119 548h100zM535 532q-78 0 -147.5 -10.5t-123.5 -19.5q-24 -120 -24 -195q0 -122 56.5 -179.5t188.5 -57.5q143 0 224.5 69t81.5 191 q0 104 -64.5 153t-191.5 49z" />
<glyph unicode="&#x44d;" horiz-adv-x="905" d="M440 1108q178 0 272.5 -105.5t94.5 -302.5q0 -208 -71.5 -377.5t-198 -256t-295.5 -86.5q-56 0 -120 12t-112 33v102q53 -27 118 -42t122 -15q176 0 287.5 115t152.5 341h-524l18 88h516q5 33 5 70q0 172 -68 255t-207 83q-48 0 -98 -11t-158 -53l-27 84 q88 35 125.5 45.5t80 15.5t87.5 5z" />
<glyph unicode="&#x44e;" horiz-adv-x="1542" d="M1096 1108q174 0 270 -105.5t96 -302.5q0 -203 -70.5 -374t-190.5 -258.5t-281 -87.5q-182 0 -273.5 108t-91.5 315q0 54 6 113h-276l-111 -516h-100l233 1087h96l-100 -479h275q51 231 187.5 365.5t330.5 134.5zM1087 1022q-122 0 -218.5 -77t-154 -224t-57.5 -313 q0 -179 68 -260.5t205 -81.5q125 0 221.5 76.5t152.5 229.5t56 330q0 158 -69.5 239t-203.5 81z" />
<glyph unicode="&#x44f;" horiz-adv-x="1038" d="M594 481q-83 0 -135.5 -19.5t-90.5 -63.5t-94 -169q-51 -114 -83.5 -154.5t-73.5 -61.5t-103 -21q-33 0 -51 6v84q12 -4 39 -4q60 0 96.5 34.5t87.5 151.5q47 111 93.5 164.5t111.5 77.5q-104 20 -160.5 82t-56.5 162q0 105 48 180t132 116t189 41h420l-232 -1087h-98 l104 481h-143zM555 1006q-130 0 -204.5 -67.5t-74.5 -184.5q0 -195 277 -195h201l94 447h-293z" />
<glyph unicode="&#x450;" horiz-adv-x="928" d="M469 -20q-173 0 -270 109.5t-97 305.5q0 181 71 347t195.5 264t274.5 98q114 0 182 -61t68 -166q0 -181 -163.5 -276t-485.5 -95h-33q-6 -44 -6 -98q0 -165 74 -251.5t213 -86.5q132 0 276 73v-94q-140 -69 -299 -69zM631 1018q-131 0 -243.5 -115.5t-162.5 -308.5h49 q517 0 517 270q0 67 -43.5 110.5t-116.5 43.5zM738 1241h-66q-50 52 -114 144.5t-99 162.5v21h115q46 -129 164 -303v-25z" />
<glyph unicode="&#x451;" horiz-adv-x="928" d="M469 -20q-173 0 -270 109.5t-97 305.5q0 181 71 347t195.5 264t274.5 98q114 0 182 -61t68 -166q0 -181 -163.5 -276t-485.5 -95h-33q-6 -44 -6 -98q0 -165 74 -251.5t213 -86.5q132 0 276 73v-94q-140 -69 -299 -69zM631 1018q-131 0 -243.5 -115.5t-162.5 -308.5h49 q517 0 517 270q0 67 -43.5 110.5t-116.5 43.5zM792 1366q0 49 20.5 78t56.5 29q54 0 54 -64q0 -48 -21 -77t-55 -29q-55 0 -55 63zM448 1366q0 49 20.5 78t56.5 29q54 0 54 -64q0 -48 -21 -77t-55 -29q-55 0 -55 63z" />
<glyph unicode="&#x452;" horiz-adv-x="1153" d="M348 1278h-145l18 82h146l39 196h98l-41 -196h373l-19 -82h-371q-51 -245 -67 -309t-27 -103h6q171 238 416 238q124 0 192 -63.5t68 -184.5q0 -70 -24 -182l-187 -858q-35 -162 -105 -235t-190 -73q-65 0 -112 19v92q58 -22 112 -22q87 0 131.5 54t69.5 175l184 866 q21 92 21 156q0 170 -178 170q-110 0 -209 -67t-166.5 -185.5t-104.5 -288.5l-102 -477h-98z" />
<glyph unicode="&#x453;" horiz-adv-x="913" d="M231 1030q121 42 171 53t94.5 16t85.5 5q136 0 207 -58.5t71 -166.5q0 -111 -76.5 -189t-267.5 -147q-152 -56 -214.5 -95t-92 -87t-29.5 -115q0 -87 55 -133.5t162 -46.5q164 0 328 73v-90q-66 -26 -149 -47.5t-191 -21.5q-146 0 -226.5 68.5t-80.5 193.5 q0 82 35.5 144.5t108.5 113t227 110.5q148 59 203 93t80.5 73t25.5 90q0 75 -49 112.5t-140 37.5q-58 0 -141 -19.5t-168 -52.5zM493 1262q66 51 150.5 142t129.5 165h137v-23q-51 -66 -157.5 -158.5t-192.5 -146.5h-67v21z" />
<glyph unicode="&#x454;" horiz-adv-x="895" d="M475 -20q-180 0 -278.5 111t-98.5 306q0 196 75 365.5t200 255.5t286 86q135 0 242 -43l-29 -90q-107 47 -217 47q-153 0 -268 -106.5t-164 -305.5h535l-21 -84h-528q-8 -54 -8 -123q0 -160 72.5 -244.5t209.5 -84.5q69 0 129.5 13t132.5 46v-92q-123 -57 -270 -57z" />
<glyph unicode="&#x455;" horiz-adv-x="827" d="M713 295q0 -144 -103 -229.5t-280 -85.5q-173 0 -305 75v107q74 -46 153 -71t148 -25q138 0 211 57.5t73 163.5q0 42 -15.5 74t-50 61.5t-132.5 85.5q-148 80 -200 145.5t-52 159.5q0 128 98.5 209.5t259.5 81.5q75 0 158.5 -17.5t140.5 -46.5l-35 -88q-136 64 -264 64 q-116 0 -186 -53t-70 -138q0 -55 17 -88t60.5 -68.5t119.5 -76.5q114 -63 161.5 -103.5t70 -86.5t22.5 -107z" />
<glyph unicode="&#x456;" horiz-adv-x="475" d="M174 0h-98l231 1087h96zM350 1366q0 55 22 88t60 33q57 0 57 -72q0 -57 -22 -90t-57 -33q-29 0 -44.5 19.5t-15.5 54.5z" />
<glyph unicode="&#x457;" horiz-adv-x="475" d="M174 0h-98l231 1087h96zM540 1366q0 49 20.5 78t56.5 29q54 0 54 -64q0 -48 -21 -77t-55 -29q-55 0 -55 63zM196 1366q0 49 20.5 78t56.5 29q54 0 54 -64q0 -48 -21 -77t-55 -29q-55 0 -55 63z" />
<glyph unicode="&#x458;" horiz-adv-x="475" d="M-166 -492q-62 0 -113 19v92q47 -22 113 -22q82 0 128.5 51.5t72.5 177.5l266 1261h96l-268 -1271q-35 -165 -106.5 -236.5t-188.5 -71.5zM350 1366q0 55 22 88t60 33q57 0 57 -72q0 -57 -22 -90t-57 -33q-29 0 -44.5 19.5t-15.5 54.5z" />
<glyph unicode="&#x459;" horiz-adv-x="1493" d="M821 596q149 22 238 22q167 0 249.5 -68.5t82.5 -211.5q0 -160 -108.5 -259t-287.5 -99q-156 0 -237.5 80.5t-81.5 228.5q0 26 3.5 64t9.5 77.5t112 577.5q-21 4 -51 4q-119 0 -198 -104t-169 -376q-84 -254 -139 -354t-122 -144t-163 -44q-32 0 -61 8v90q32 -8 59 -8 q75 0 123.5 38.5t95 133t119.5 309.5q42 122 82 221t92.5 168.5t125 107.5t179.5 38q65 0 144 -17zM1040 532q-115 0 -235 -22q-29 -132 -29 -207q0 -233 223 -233q134 0 211.5 70.5t77.5 189.5q0 101 -59.5 151.5t-188.5 50.5z" />
<glyph unicode="&#x45a;" horiz-adv-x="1595" d="M883 588l56 10q117 20 214 20q340 0 340 -280q0 -162 -111.5 -260t-304.5 -98q-163 0 -249.5 79t-86.5 232q0 98 25 225h-481l-111 -516h-100l233 1087h96l-100 -479h483l105 479h100zM1135 532q-78 0 -147.5 -10.5t-123.5 -19.5q-24 -120 -24 -195q0 -122 56.5 -179.5 t188.5 -57.5q143 0 224.5 69t81.5 191q0 104 -64.5 153t-191.5 49z" />
<glyph unicode="&#x45b;" horiz-adv-x="1153" d="M760 0l153 698q21 101 21 156q0 81 -48 122.5t-134 41.5q-171 0 -298.5 -141.5t-179.5 -395.5l-100 -481h-98l272 1282h-143l16 78h144l41 196h98l-41 -196h373l-17 -78h-373q-68 -315 -94 -408h10q93 124 191 177t215 53q129 0 197.5 -62t68.5 -182q0 -62 -22 -170 l-150 -690h-102z" />
<glyph unicode="&#x45c;" horiz-adv-x="932" d="M858 1087h146l-607 -534l404 -553h-127l-391 549l-113 -549h-98l225 1087h98l-110 -524zM592 1262q66 51 150.5 142t129.5 165h137v-23q-51 -66 -157.5 -158.5t-192.5 -146.5h-67v21z" />
<glyph unicode="&#x45d;" horiz-adv-x="1143" d="M381 1087l-152 -698q-22 -106 -22 -158q0 -74 47.5 -117.5t138.5 -43.5q110 0 207.5 65.5t164 187t99.5 279.5l105 485h98l-231 -1087h-80l28 205h-6q-167 -221 -403 -221q-131 0 -198.5 62t-67.5 181q0 60 22 170l150 690h100zM766 1241h-66q-50 52 -114 144.5 t-99 162.5v21h115q46 -129 164 -303v-25z" />
<glyph unicode="&#x45e;" horiz-adv-x="920" d="M123 1087h100l82 -548q51 -351 55 -449h11q43 105 186 367l348 630h103l-713 -1290q-72 -127 -122.5 -178t-114 -81t-146.5 -30q-68 0 -129 21v92q71 -27 137 -27q80 0 147 49.5t130 164.5t100 184zM933 1528q-17 -137 -110.5 -212t-243.5 -75q-140 0 -205.5 58 t-65.5 155q0 38 13 74h82q-8 -45 -8 -62q0 -68 42.5 -103.5t143.5 -35.5q231 0 258 201h94z" />
<glyph unicode="&#x45f;" horiz-adv-x="1143" d="M500 -86h32l-90 -406h-90l88 390zM381 1087l-152 -698q-22 -106 -22 -158q0 -74 47.5 -117.5t138.5 -43.5q110 0 207.5 65.5t164 187t99.5 279.5l105 485h98l-231 -1087h-80l28 205h-6q-167 -221 -403 -221q-131 0 -198.5 62t-67.5 181q0 60 22 170l150 690h100z" />
<glyph unicode="&#x460;" horiz-adv-x="1876" d="M1462 1389q-59 0 -105.5 -16.5t-92.5 -41.5l-45 84q119 68 254 68q335 0 335 -443q0 -189 -54 -396t-145.5 -365.5t-201.5 -228.5t-250 -70q-112 0 -185 50t-95 142q-41 -87 -130.5 -139.5t-195.5 -52.5q-183 0 -282 122.5t-99 368.5q0 260 85 504.5t218.5 376 t310.5 131.5q134 0 234 -72l-57 -86q-90 64 -187 64q-93 0 -182.5 -70t-163 -208.5t-114 -308t-40.5 -321.5q0 -409 283 -409q122 0 193 75t106 234l53 244h109l-41 -201q-19 -89 -19 -143q0 -209 207 -209q116 0 209.5 76.5t167.5 224t118 331.5t44 340q0 170 -61.5 257.5 t-180.5 87.5z" />
<glyph unicode="&#x461;" horiz-adv-x="1352" d="M242 0l-127 1087h98l76 -677q24 -239 30 -312l340 480l-69 509h98l92 -655q28 -203 37 -334q179 179 293 418t178 571h98q-62 -355 -196.5 -619t-349.5 -468h-99l-61 457h-4l-320 -457h-114z" />
<glyph unicode="&#x462;" horiz-adv-x="1262" d="M1139 465q0 -223 -140 -344t-391 -121h-362l246 1161h-314l21 94h313l68 301h104l-68 -301h410l-18 -94h-412l-76 -350h232q187 0 287 -89.5t100 -256.5zM502 721l-135 -631h239q205 0 315.5 92t110.5 277q0 134 -74.5 198t-224.5 64h-231z" />
<glyph unicode="&#x463;" horiz-adv-x="1022" d="M416 1087h284l-18 -81h-283l-90 -418l56 10q117 20 215 20q340 0 340 -280q0 -162 -111.5 -260t-304.5 -98q-163 0 -249.5 79t-86.5 232q0 105 31 248l100 467h-227l16 81h227l52 232h100zM561 532q-77 0 -146.5 -10.5t-123.5 -19.5q-25 -118 -25 -195q0 -122 57 -179.5 t189 -57.5q144 0 224.5 69.5t80.5 190.5q0 103 -64 152.5t-192 49.5z" />
<glyph unicode="&#x464;" horiz-adv-x="1735" d="M1526 1389q-236 0 -408.5 -153.5t-243.5 -422.5h678l-18 -94h-678q-7 -34 -11.5 -91t-4.5 -89q0 -226 111.5 -346.5t316.5 -120.5q139 0 303 51v-94q-156 -49 -316 -49q-252 0 -386 143t-134 412q0 96 15 184h-396l-149 -719h-103l310 1462h102l-139 -649h393 q48 202 155 353t262.5 234t340.5 83q177 0 307 -68l-45 -90q-111 64 -262 64z" />
<glyph unicode="&#x465;" horiz-adv-x="1356" d="M936 -20q-180 0 -278.5 111t-98.5 306q0 74 8 125h-280l-113 -522h-100l233 1087h96l-100 -481h279q52 234 195 366t343 132q135 0 242 -43l-29 -90q-107 47 -217 47q-153 0 -268 -106.5t-164 -305.5h535l-21 -84h-528q-8 -54 -8 -123q0 -160 72.5 -244.5t209.5 -84.5 q69 0 129.5 13t132.5 46v-92q-123 -57 -270 -57z" />
<glyph unicode="&#x466;" horiz-adv-x="1159" d="M528 0h-94l156 725h-166l-426 -725h-109l863 1462h69l248 -1462h-96l-125 725h-168zM756 1315q-15 -36 -57 -115.5t-86 -154t-138 -232.5h359l-35 209q-36 204 -39 293h-4z" />
<glyph unicode="&#x467;" horiz-adv-x="1001" d="M680 1087l188 -1087h-98l-82 510h-137l-109 -510h-94l115 510h-125l-309 -510h-99l652 1087h98zM610 989q-72 -144 -225 -399h291q-52 305 -60 399h-6z" />
<glyph unicode="&#x468;" horiz-adv-x="1647" d="M1016 0h-94l155 725h-166l-426 -725h-108l426 725h-447l-151 -725h-103l310 1462h102l-139 -649h481l383 649h70l247 -1462h-96l-125 725h-168zM1243 1315q-15 -37 -59 -120t-99 -175l-122 -207h358l-35 209q-36 204 -39 293h-4z" />
<glyph unicode="&#x469;" horiz-adv-x="1341" d="M1020 1087l188 -1087h-98l-82 510h-137l-109 -510h-94l115 510h-125l-309 -510h-99l305 510h-296l-109 -510h-94l233 1087h94l-106 -497h326l299 497h98zM950 989q-72 -144 -225 -399h291q-52 305 -60 399h-6z" />
<glyph unicode="&#x46a;" horiz-adv-x="1315" d="M-61 0l247 512q70 143 124 202t128 89t178 33l-276 536l18 90h1018l-20 -86l-522 -540q109 -7 173.5 -44.5t97 -106.5t42.5 -224l31 -461h-105l-31 471q-8 120 -34 174.5t-79 79.5t-147 25h-16l-166 -750h-98l160 750h-19q-98 0 -157.5 -22.5t-106 -77t-107.5 -181.5 l-225 -469h-108zM721 836l502 536h-772z" />
<glyph unicode="&#x46b;" horiz-adv-x="1247" d="M-98 0l202 367q57 105 110.5 156t127 79t176.5 35l-258 381l10 69h895l-12 -69l-418 -381q98 -11 159.5 -45t96.5 -95t53 -178l54 -319h-99l-51 311q-23 140 -84.5 191t-208.5 53l-118 -555h-95l119 555q-113 -3 -170.5 -22.5t-103 -63.5t-90.5 -125l-187 -344h-108z M623 637l391 369h-637z" />
<glyph unicode="&#x46c;" horiz-adv-x="1827" d="M451 0l247 512q41 85 80.5 139.5t93.5 89.5h-512l-155 -741h-103l310 1462h102l-133 -626h745l-274 536l18 90h1018l-20 -86l-522 -540q109 -7 173.5 -44.5t97 -106.5t42.5 -224l31 -461h-105l-31 471q-8 120 -34 174.5t-79 79.5t-147 25h-16l-166 -750h-98l160 750h-19 q-98 0 -157.5 -22.5t-106 -77t-107.5 -181.5l-225 -469h-108zM1233 836l502 536h-772z" />
<glyph unicode="&#x46d;" horiz-adv-x="1614" d="M268 0l203 367q35 63 68.5 105t81.5 73h-330l-117 -545h-100l233 1087h96l-94 -450h576l-258 381l10 69h895l-12 -69l-418 -381q97 -11 158 -45t96 -94t55 -179l53 -319h-98l-51 311q-23 140 -84.5 191t-208.5 53l-119 -555h-94l119 555h-13q-134 0 -210 -45t-142 -166 l-186 -344h-109zM989 637l391 369h-637z" />
<glyph unicode="&#x46e;" horiz-adv-x="1020" d="M795 422q0 289 -373 289h-182l18 96h178q131 0 237 45t158 123.5t52 183.5q0 114 -68 176t-190 62q-95 0 -178 -33.5t-162 -85.5l-54 76q88 60 177.5 91.5t201.5 37.5q-30 59 -77 127.5t-80 99.5v21h94q62 -72 137 -205q64 94 98 130t67.5 55.5t68.5 19.5q34 0 63 -13 v-78q-38 7 -53 7q-37 0 -86.5 -45t-102.5 -127q117 -23 182.5 -102.5t65.5 -203.5q0 -160 -91 -263.5t-267 -145.5v-4q128 -23 205 -111t77 -219q0 -206 -147.5 -324t-441.5 -139q-167 -11 -231 -42.5t-64 -96.5q0 -52 40.5 -81.5t108.5 -29.5l75 3q190 12 267 12 q153 0 225 -37v-111q-94 47 -249 47l-78 -2q-180 -10 -246 -10q-112 0 -183 53.5t-71 141.5q0 79 39.5 129t115 78t238.5 42q188 16 287 57.5t149 117t50 188.5z" />
<glyph unicode="&#x46f;" horiz-adv-x="834" d="M567 1098q96 -17 147.5 -82t51.5 -158q0 -113 -65.5 -187t-188.5 -98v-4q89 -18 139.5 -76.5t50.5 -150.5q0 -103 -45.5 -172t-137 -112t-265.5 -72q-160 -27 -213 -60t-53 -92q0 -94 143 -94q56 0 224 10l69 2q77 0 127 -10t92 -33v-96q-92 47 -229 47l-66 -2 q-155 -10 -229 -10q-118 0 -175 48t-57 132q0 69 34.5 115t106 76.5t228.5 58.5q198 34 271 91.5t73 168.5q0 97 -65 141.5t-205 44.5h-84l20 92h90q149 0 228.5 61.5t79.5 168.5q0 78 -52.5 125t-140.5 47q-61 0 -117.5 -17t-130.5 -63l-41 80q118 73 258 86 q-32 64 -79.5 130.5t-79.5 96.5v21h94q61 -69 137 -205q64 94 98 130t67.5 55.5t67.5 19.5q35 0 64 -13v-77q-33 6 -53 6q-38 0 -87 -44.5t-102 -125.5z" />
<glyph unicode="&#x470;" horiz-adv-x="1419" d="M770 455h-12l-96 -455h-103l96 455h-8q-212 0 -325 100.5t-113 292.5q0 102 29 239l79 375h103q-55 -258 -85.5 -399.5t-25.5 -206.5q0 -160 86 -236.5t267 -76.5h12l194 919h103l-195 -919h10q235 0 360.5 105t178.5 351l100 463h101l-105 -485q-56 -275 -214.5 -398.5 t-436.5 -123.5z" />
<glyph unicode="&#x471;" horiz-adv-x="1364" d="M950 1556q-237 -1094 -317 -1478q286 17 418.5 257.5t132.5 751.5h102q0 -391 -74.5 -624t-224 -347.5t-373.5 -123.5l-102 -484h-94l102 484q-180 17 -273 120.5t-93 278.5q0 96 30 238l99 458h102l-98 -454q-31 -139 -31 -232q0 -293 283 -323q118 547 184.5 851.5 t132.5 626.5h94z" />
<glyph unicode="&#x472;" horiz-adv-x="1464" d="M1403 911q0 -189 -53.5 -370t-145 -304.5t-222 -190t-290.5 -66.5q-253 0 -386.5 150t-133.5 429q0 256 91.5 472.5t254.5 334t375 117.5q248 0 379 -148.5t131 -423.5zM705 72q223 0 371.5 162.5t199.5 459.5h-993q-7 -65 -7 -121q0 -246 110 -373.5t319 -127.5z M879 1389q-221 0 -376 -162t-206 -441h993l4 115q0 244 -107 366t-308 122z" />
<glyph unicode="&#x473;" horiz-adv-x="1124" d="M649 1108q180 0 278.5 -108.5t98.5 -299.5q0 -197 -71.5 -368.5t-195.5 -261.5t-286 -90q-184 0 -279.5 109.5t-95.5 313.5q0 191 73 358t197 257t281 90zM483 66q160 0 271 119.5t151 330.5h-698q-6 -56 -6 -108q0 -342 282 -342zM641 1022q-151 0 -263 -114.5 t-157 -307.5h697q6 52 6 102q0 154 -73 237t-210 83z" />
<glyph unicode="&#x474;" horiz-adv-x="1096" d="M457 147q18 47 61.5 143t417.5 888q60 126 107.5 184t104.5 85.5t132 27.5q43 0 72 -7v-84q-29 9 -72 9q-77 0 -132 -52t-130 -206l-547 -1135h-88l-182 1462h100l117 -950q27 -228 35 -365h4z" />
<glyph unicode="&#x475;" horiz-adv-x="877" d="M104 1087h101l108 -735q26 -178 33 -254h6l63 157l238 556q53 125 94.5 180.5t92 84t118.5 28.5q48 0 72 -10v-78q-28 10 -72 10q-60 0 -107 -49.5t-106 -185.5l-356 -791h-113z" />
<glyph unicode="&#x476;" horiz-adv-x="1096" d="M457 147q18 47 61.5 143t417.5 888q60 126 107.5 184t104.5 85.5t132 27.5q43 0 72 -7v-84q-29 9 -72 9q-77 0 -132 -52t-130 -206l-547 -1135h-88l-182 1462h100l117 -950q27 -228 35 -365h4zM602 1579h-74q-47 47 -116 147t-99 160v21h125q49 -137 164 -303v-25z M933 1579h-73q-47 47 -116 147t-99 160v21h125q47 -132 163 -303v-25z" />
<glyph unicode="&#x477;" horiz-adv-x="877" d="M104 1087h101l108 -735q26 -178 33 -254h6l63 157l238 556q53 125 94.5 180.5t92 84t118.5 28.5q48 0 72 -10v-78q-28 10 -72 10q-60 0 -107 -49.5t-106 -185.5l-356 -791h-113zM400 1241h-74q-47 47 -116 147t-99 160v21h125q49 -137 164 -303v-25zM731 1241h-73 q-47 47 -116 147t-99 160v21h125q47 -132 163 -303v-25z" />
<glyph unicode="&#x478;" horiz-adv-x="2390" d="M1403 911q0 -255 -94 -481.5t-252 -338t-365 -111.5q-250 0 -385 149t-135 430q0 262 93 477.5t255 331t373 115.5q247 0 378.5 -148.5t131.5 -423.5zM879 1389q-174 0 -308.5 -101t-214.5 -298t-80 -417q0 -245 109.5 -373t319.5 -128q169 0 300 98.5t210 300t79 430.5 q0 240 -104.5 364t-310.5 124zM1593 1087h100l82 -548q51 -351 55 -449h11q43 105 186 367l348 630h103l-713 -1290q-72 -127 -122.5 -178t-114 -81t-146.5 -30q-68 0 -129 21v92q71 -27 137 -27q80 0 147 49.5t130 164.5t100 184z" />
<glyph unicode="&#x479;" horiz-adv-x="1974" d="M1178 1087h100l82 -548q51 -351 55 -449h11q43 105 186 367l348 630h103l-713 -1290q-72 -127 -122.5 -178t-114 -81t-146.5 -30q-68 0 -129 21v92q71 -27 137 -27q80 0 147 49.5t130 164.5t100 184zM651 1108q180 0 278.5 -108.5t98.5 -299.5q0 -197 -71.5 -368.5 t-195.5 -261.5t-286 -90q-184 0 -279.5 109.5t-95.5 313.5q0 191 73 358t197 257t281 90zM643 1022q-124 0 -223 -78.5t-158 -225t-59 -310.5q0 -342 282 -342q127 0 225.5 77.5t157 228t58.5 330.5q0 154 -73 237t-210 83z" />
<glyph unicode="&#x47a;" horiz-adv-x="1464" d="M1403 911q0 -241 -84.5 -458t-229.5 -335t-331 -134q-11 -39 -39.5 -58.5t-63.5 -19.5q-38 0 -66.5 22.5t-37.5 65.5q-185 38 -282 183.5t-97 381.5q0 249 84.5 458t234.5 328.5t345 135.5q12 37 39.5 56t62.5 19q38 0 67.5 -22.5t38.5 -69.5q175 -41 267 -182.5 t92 -370.5zM938 1303q-82 0 -104 83q-161 -12 -285 -116t-198.5 -295.5t-74.5 -401.5q0 -196 71.5 -319t209.5 -164q12 34 38 52t60 18q38 0 67 -21.5t40 -64.5q155 17 272.5 120.5t188.5 298t71 408.5q0 378 -258 465q-28 -63 -98 -63z" />
<glyph unicode="&#x47b;" horiz-adv-x="1124" d="M684 1171q35 0 60.5 -20.5t33.5 -60.5q121 -36 184.5 -136t63.5 -254q0 -185 -62.5 -347t-169 -255.5t-247.5 -111.5q-23 -72 -92 -72q-34 0 -59.5 20t-33.5 58q-134 31 -199 137.5t-65 273.5q0 178 62.5 334.5t175 253.5t258.5 113q23 67 90 67zM684 942q-34 0 -59 19.5 t-33 56.5q-113 -15 -201 -98.5t-139 -222t-51 -289.5q0 -265 166 -324q24 59 88 59q74 0 92 -73q113 20 196 104t132 227t49 301q0 107 -38 183.5t-116 111.5q-24 -55 -86 -55z" />
<glyph unicode="&#x47c;" horiz-adv-x="1876" d="M1116 72q142 0 243.5 71.5t178 217t121.5 332t45 351.5q0 170 -61.5 257.5t-180.5 87.5q-59 0 -105.5 -16.5t-92.5 -41.5l-45 84q119 68 254 68q335 0 335 -443q0 -278 -98 -545t-239.5 -391t-346.5 -124q-146 0 -274 73q-98 -43 -160 -58t-119 -15q-193 0 -297 125 t-104 366q0 260 85 504.5t218.5 376t310.5 131.5q134 0 234 -72l-57 -86q-90 64 -187 64q-93 0 -182.5 -70t-163 -208.5t-114 -308t-40.5 -321.5q0 -205 78 -307t228 -102q85 0 156.5 27t119.5 61q53 -38 122.5 -63t137.5 -25zM1620 1942l-16 -82h-17q-75 0 -134 20t-122 51 q-42 20 -81.5 33.5t-86.5 13.5q-62 0 -102.5 -30.5t-50.5 -85.5h-99q22 94 86.5 144t159.5 50q48 0 99 -11.5t143 -51.5q75 -34 116 -42.5t84 -8.5h21zM1309 1790q0 -74 -56 -130.5t-143 -74.5l10 62q43 10 71 35t28 47q0 21 -14 28.5t-36 18.5q-14 8 -29.5 20t-15.5 35 q0 31 21.5 47t56.5 16q51 0 79 -27.5t28 -76.5z" />
<glyph unicode="&#x47d;" horiz-adv-x="1475" d="M842 72q130 0 217 76t152 261.5t65 360.5q0 115 -42.5 178.5t-127.5 63.5q-76 0 -158 -47l-43 82q109 57 207 57q264 0 264 -334q0 -216 -77 -419.5t-189 -287t-262 -83.5q-111 0 -209 53q-112 -53 -211 -53q-152 0 -235.5 93.5t-83.5 288.5q0 194 68 376t170 274t233 92 q101 0 180 -62l-55 -84q-67 54 -134 54q-80 0 -161 -75t-141 -243.5t-60 -322.5q0 -299 225 -299q62 0 118 20t93 45q39 -29 93 -47t104 -18zM1315 1636l-17 -82h-16q-55 0 -110 14t-146 58q-42 20 -81.5 33.5t-86.5 13.5q-62 0 -102.5 -30.5t-50.5 -86.5h-99 q22 94 86.5 144.5t159.5 50.5q47 0 98.5 -11.5t143.5 -51.5q76 -35 114 -43.5t86 -8.5h21zM1004 1485q0 -74 -56 -130.5t-143 -74.5l10 61q40 10 69 35.5t29 46.5q0 25 -29 38q-8 4 -18 8.5t-28.5 18.5t-18.5 38q0 31 21.5 47t56.5 16q51 0 79 -27.5t28 -76.5z" />
<glyph unicode="&#x47e;" horiz-adv-x="1876" d="M1462 1389q-59 0 -105.5 -16.5t-92.5 -41.5l-45 84q119 68 254 68q335 0 335 -443q0 -189 -54 -396t-145.5 -365.5t-201.5 -228.5t-250 -70q-112 0 -185 50t-95 142q-41 -87 -130.5 -139.5t-195.5 -52.5q-183 0 -282 122.5t-99 368.5q0 260 85 504.5t218.5 376 t310.5 131.5q134 0 234 -72l-57 -86q-90 64 -187 64q-93 0 -182.5 -70t-163 -208.5t-114 -308t-40.5 -321.5q0 -409 283 -409q122 0 193 75t106 234l53 244h109l-41 -201q-19 -89 -19 -143q0 -209 207 -209q116 0 209.5 76.5t167.5 224t118 331.5t44 340q0 170 -61.5 257.5 t-180.5 87.5zM1573 1788l-6 -27l-115 -164h-12l-29 117h-203l-80 -117h-12l-31 117h-202l-78 -117h-12l-45 164l6 27h819z" />
<glyph unicode="&#x47f;" horiz-adv-x="1352" d="M242 0l-127 1087h98l76 -677q24 -239 30 -312l340 480l-69 509h98l92 -655q28 -203 37 -334q179 179 293 418t178 571h98q-62 -355 -196.5 -619t-349.5 -468h-99l-61 457h-4l-320 -457h-114zM1217 1456l-7 -26l-114 -164h-13l-28 116h-203l-80 -116h-12l-31 116h-203 l-77 -116h-13l-45 164l6 26h820z" />
<glyph unicode="&#x480;" horiz-adv-x="1169" d="M961 1389q-197 0 -351.5 -104.5t-245 -304.5t-90.5 -441q0 -221 108.5 -344t297.5 -123q54 0 84 8l-125 -572h-102l102 474q-222 9 -345.5 154.5t-123.5 398.5q0 266 104.5 488t284.5 341t402 119q177 0 307 -68l-45 -90q-128 64 -262 64z" />
<glyph unicode="&#x481;" horiz-adv-x="887" d="M487 70q88 0 164 36l-129 -598h-98l100 469l-31 -1q-189 0 -290 111t-101 310q0 193 75.5 363t200.5 257t286 87q134 0 241 -43l-28 -90q-107 47 -218 47q-131 0 -235 -77.5t-161.5 -220.5t-57.5 -321q0 -154 74 -241.5t208 -87.5z" />
<glyph unicode="&#x482;" horiz-adv-x="1247" d="M561 420l285 -166l-39 -66l-285 164l-180 -313l-72 41l181 315l-283 166l39 64l285 -164l231 403l-283 164l37 68l285 -164l182 309l70 -37l-183 -315l287 -164l-41 -66l-282 164z" />
<glyph unicode="&#x483;" horiz-adv-x="1174" d="M532 1278q-6 -86 -88 -86q-34 0 -52.5 18t-18.5 47q0 44 29 69.5t87 25.5h443q5 43 26 64.5t64 21.5q34 0 54 -17t20 -51q0 -87 -121 -92h-443z" />
<glyph unicode="&#x484;" horiz-adv-x="1214" d="M434 1343q52 0 112.5 11.5t160.5 46.5q58 20 116.5 36.5t124.5 16.5q88 0 140.5 -38t52.5 -105q0 -31 -4 -47h-93q5 13 5 30q0 86 -105 86q-44 0 -93.5 -12.5t-148.5 -48.5q-164 -57 -278 -57h-21l17 81h14z" />
<glyph unicode="&#x485;" horiz-adv-x="1214" d="M655 1464q0 44 24 72.5t62 28.5q80 0 80 -62q0 -39 -37 -51q-43 -17 -43 -37q0 -57 119 -94v-66q-106 34 -155.5 89t-49.5 120z" />
<glyph unicode="&#x486;" horiz-adv-x="1214" d="M891 1464q0 -75 -53 -128.5t-152 -80.5v66q119 37 119 94q0 20 -43 37q-20 10 -26 18t-8.5 16t-2.5 17q0 62 80 62q38 0 62 -28.5t24 -72.5z" />
<glyph unicode="&#x488;" horiz-adv-x="2025" d="M1135 1231q-5 44 -35 66t-99 22q-78 0 -103 -20.5t-30 -67.5h-75q11 194 208 194q93 0 149.5 -50.5t63.5 -143.5h-79zM1135 -319q-5 44 -35 66t-99 22q-78 0 -103 -20.5t-30 -67.5h-75q5 89 55 141.5t153 52.5q92 0 149.5 -51t63.5 -143h-79zM1714 -41q-5 45 -35 66.5 t-98 21.5q-78 0 -103 -19.5t-30 -68.5h-76q5 90 55.5 142.5t153.5 52.5q92 0 149.5 -51t63.5 -144h-80zM561 -41q-5 45 -35 66.5t-98 21.5q-78 0 -103 -19.5t-30 -68.5h-76q5 90 55.5 142.5t153.5 52.5q92 0 149.5 -51t63.5 -144h-80zM1714 946q-5 45 -35 66.5t-98 21.5 q-78 0 -103 -19.5t-30 -68.5h-76q5 90 55.5 142.5t153.5 52.5q92 0 149.5 -51t63.5 -144h-80zM561 946q-5 45 -35 66.5t-98 21.5q-78 0 -103 -19.5t-30 -68.5h-76q5 90 55.5 142.5t153.5 52.5q92 0 149.5 -51t63.5 -144h-80zM1905 459q-5 44 -35 66t-98 22q-78 0 -103.5 -20 t-30.5 -68h-75q11 194 209 194q92 0 149.5 -52t63.5 -142h-80zM383 459q-5 45 -35 66.5t-98 21.5q-78 0 -103 -19.5t-30 -68.5h-76q5 90 55.5 142t153.5 52q92 0 149.5 -51t63.5 -143h-80z" />
<glyph unicode="&#x489;" horiz-adv-x="1958" d="M1079 -35l11 -14q-17 -66 -52 -161.5t-71 -174.5h-97q53 221 70 350h139zM1567 651l14 11q71 -19 171 -55.5t165 -67.5v-97q-221 53 -350 70v139zM881 1141l-11 14q19 71 55.5 171t67.5 165h97q-52 -220 -70 -350h-139zM1565 -211q-31 50 -96 147.5t-103 149.5l98 98 l17 -2q39 -69 84 -166t67 -157zM633 45l-2 -16q-155 -89 -324 -152l-69 68q177 110 297 198zM492 877l-17 2q-82 140 -151 323l67 70q123 -198 199 -297zM1651 1186l69 -68q-177 -110 -297 -198l-98 98l2 16q67 39 162 83t162 69zM391 453l-14 -11q-66 17 -161.5 52 t-174.5 71v97q221 -53 350 -70v-139z" />
<glyph unicode="&#x48a;" horiz-adv-x="1430" d="M412 1462h102l-186 -878q-41 -197 -95 -406l1035 1284h110l-291 -1368h164l-217 -450h-114l208 356h-161l184 864q54 261 102 443l-1050 -1307h-101zM1251 1866q-17 -137 -110.5 -212t-243.5 -75q-133 0 -201.5 55t-68.5 158q0 40 12 74h82q-8 -45 -8 -62 q0 -68 42.5 -103.5t143.5 -35.5q231 0 258 201h94z" />
<glyph unicode="&#x48b;" horiz-adv-x="1169" d="M381 1087l-152 -698q-22 -106 -22 -162q0 -74 47.5 -115.5t138.5 -41.5q110 0 207.5 65.5t164 187t99.5 279.5l105 485h98l-215 -1007h164l-201 -447h-117l207 367h-149l28 205h-6q-167 -221 -403 -221q-132 0 -199 62t-67 181q0 60 22 170l150 690h100zM1059 1530 q-17 -136 -110.5 -211.5t-243.5 -75.5q-140 0 -205.5 58t-65.5 155q0 40 12 74h82q-8 -45 -8 -62q0 -68 42.5 -103.5t144.5 -35.5q231 0 258 201h94z" />
<glyph unicode="&#x48c;" horiz-adv-x="1118" d="M995 465q0 -222 -139 -343.5t-391 -121.5h-363l246 1169h-162l21 95h162l43 198h104l-43 -198h328l-19 -95h-329l-76 -358h231q187 0 287 -89.5t100 -256.5zM358 721l-135 -631h240q204 0 315 92t111 277q0 134 -74.5 198t-224.5 64h-232z" />
<glyph unicode="&#x48d;" horiz-adv-x="995" d="M430 1284h244l-19 -82h-241l-131 -614l56 10q117 20 214 20q340 0 340 -280q0 -162 -111.5 -260t-304.5 -98q-163 0 -249.5 79t-86.5 232q0 93 31 248l141 663h-166l17 82h166l61 272h101zM535 532q-78 0 -147.5 -10.5t-123.5 -19.5q-24 -120 -24 -195 q0 -122 56.5 -179.5t188.5 -57.5q143 0 224.5 69t81.5 191q0 104 -64.5 153t-191.5 49z" />
<glyph unicode="&#x48e;" horiz-adv-x="1145" d="M1145 1102q0 -328 -264 -440l98 -201l-84 -41l-104 211q-110 -29 -256 -29h-201l-129 -602h-103l310 1462h315q202 0 310 -92.5t108 -267.5zM350 694h191q123 0 209 21l-95 196l86 41l99 -207q102 47 149 134t47 217q0 274 -329 274h-211z" />
<glyph unicode="&#x48f;" horiz-adv-x="1149" d="M498 -16q-230 0 -279 219h-4l-37 -180l-112 -515h-99l336 1579h82l-45 -274h6q91 153 195.5 224t228.5 71q135 0 208 -92.5t73 -282.5q0 -210 -83 -396t-225 -280l103 -209l-84 -41l-100 207q-78 -30 -164 -30zM748 1018q-87 0 -174 -58.5t-161.5 -167.5t-110.5 -237.5 t-36 -208.5q0 -125 61.5 -200.5t168.5 -75.5q68 0 127 24l-101 205l86 41l97 -201q108 82 175.5 247t67.5 337q0 295 -200 295z" />
<glyph unicode="&#x490;" horiz-adv-x="946" d="M1014 1462l65 293h105l-86 -387h-602l-291 -1368h-103l310 1462h602z" />
<glyph unicode="&#x491;" horiz-adv-x="698" d="M784 1006h-403l-211 -1006h-98l227 1087h408l69 326h96z" />
<glyph unicode="&#x492;" horiz-adv-x="932" d="M1120 1462l-20 -94h-604l-129 -602h335l-18 -82h-334l-145 -684h-103l146 684h-146l19 82h143l148 696h708z" />
<glyph unicode="&#x493;" horiz-adv-x="698" d="M72 0l106 514h-155l18 80h154l104 493h504l-19 -81h-403l-86 -412h274l-18 -80h-275l-106 -514h-98z" />
<glyph unicode="&#x494;" horiz-adv-x="1167" d="M485 705q-62 0 -131 -9l-145 -696h-107l310 1462h708l-20 -94h-604l-123 -582q68 11 129 11q236 0 365.5 -134.5t129.5 -377.5q0 -237 -87 -424.5t-238.5 -280t-356.5 -92.5q-134 0 -229 41v104q119 -51 238 -51q169 0 295.5 81t200 247t73.5 369q0 201 -108.5 313.5 t-299.5 112.5z" />
<glyph unicode="&#x495;" horiz-adv-x="918" d="M287 -498q-102 0 -178 37v99q88 -48 186 -48q122 0 215 79.5t144 222.5t51 317q0 154 -75 242t-208 88q-79 0 -143 -17l-109 -522h-98l227 1087h504l-19 -81h-403l-82 -390q57 13 133 13q112 0 195.5 -47.5t131.5 -141t48 -229.5q0 -202 -67.5 -370.5t-184.5 -253.5 t-268 -85z" />
<glyph unicode="&#x496;" horiz-adv-x="1591" d="M641 760l-424 702h125l414 -704l147 704h103l-152 -706l692 706h140l-717 -725l379 -643h149l-98 -450h-105l80 356h-94l-430 737l-154 -737h-102l158 739l-699 -739h-141z" />
<glyph unicode="&#x497;" horiz-adv-x="1634" d="M1362 -18l-13 -2h-14q-334 0 -334 419q0 46 9 115h-166l-109 -514h-96l109 514h-158q-30 -160 -100 -280.5t-173 -187t-233 -66.5q-75 0 -135 16l18 92q56 -18 127 -18q116 0 210 79t149 219.5t55 297.5q0 177 -59 262.5t-185 85.5q-52 0 -112 -10v88q72 12 120 12 q334 0 334 -420q0 -50 -4 -82h164l104 485h95l-103 -485h162q28 149 96.5 262t170.5 176.5t233 63.5q77 0 135 -17l-19 -92q-57 19 -127 19q-113 0 -206.5 -76t-150 -218.5t-56.5 -301.5q0 -177 59 -262.5t184 -85.5q47 0 146 22l-105 -457h-100z" />
<glyph unicode="&#x498;" horiz-adv-x="1020" d="M987 1169q0 -160 -91 -263.5t-267 -145.5v-4q130 -23 199 -110.5t69 -227.5q0 -130 -67.5 -232.5t-187 -154t-284.5 -51.5q-211 0 -389 79v117q183 -106 402 -106q204 0 314 93.5t110 260.5q0 287 -373 287h-182l18 96h178q131 0 237 45t158 123.5t52 183.5 q0 114 -67 176t-191 62q-168 0 -340 -119l-54 76q190 129 406 129q165 0 257.5 -82t92.5 -232zM269 -340q118 0 118 160q0 100 -32 180h84q43 -115 43 -190q0 -102 -54.5 -163t-158.5 -61q-50 0 -82 15l14 69q27 -10 68 -10z" />
<glyph unicode="&#x499;" horiz-adv-x="799" d="M336 616q146 0 226.5 59.5t80.5 170.5q0 78 -52 125t-140 47q-61 0 -117.5 -17t-130.5 -63l-41 80q83 50 153 68t156 18q130 0 202 -65t72 -181q0 -113 -66 -187t-187 -98v-4q94 -20 142 -82.5t48 -158.5q0 -102 -51 -181.5t-145 -123t-222 -43.5q-86 0 -160 18.5 t-122 46.5v109q139 -86 290 -86q143 0 225.5 68.5t82.5 185.5q0 107 -64.5 154.5t-206.5 47.5h-84l21 92h90zM179 -340q118 0 118 160q0 100 -32 180h84q43 -115 43 -190q0 -102 -54.5 -163t-158.5 -61q-50 0 -82 15l14 69q27 -10 68 -10z" />
<glyph unicode="&#x49a;" horiz-adv-x="1192" d="M967 94h161l-98 -450h-104l80 356h-95l-555 729l-151 -729h-103l310 1462h102l-158 -727l787 727h143l-809 -733z" />
<glyph unicode="&#x49b;" horiz-adv-x="969" d="M858 1087h146l-607 -534l344 -473h123l-102 -445h-100l81 365h-69l-391 549l-113 -549h-98l225 1087h98l-110 -524z" />
<glyph unicode="&#x49c;" horiz-adv-x="1106" d="M504 770l-168 -135l-131 -635h-103l310 1462h102l-156 -712l172 147l54 248h86l-33 -156l532 473h138l-699 -610l371 -852h-111l-297 684l-67 -315h-86z" />
<glyph unicode="&#x49d;" horiz-adv-x="854" d="M514 1014h86l-43 -203l301 276h146l-478 -421l-49 -226l324 -440h-127l-223 313l-48 -223h-86l68 316l-102 143l-113 -549h-98l225 1087h98l-110 -524l166 152z" />
<glyph unicode="&#x49e;" horiz-adv-x="1079" d="M979 0h-111l-342 788l-190 -153l-131 -635h-103l246 1165h-164l19 82h164l45 215h102l-47 -215h223l-18 -82h-223l-93 -426l133 121l680 602h138l-699 -610z" />
<glyph unicode="&#x49f;" horiz-adv-x="883" d="M270 477l609 610h125l-474 -469l297 -618h-106l-264 559l-205 -188l-80 -371h-96l270 1282h-141l16 78h141l44 196h96l-43 -196h377l-17 -78h-377l-106 -506l-70 -299h4z" />
<glyph unicode="&#x4a0;" horiz-adv-x="1237" d="M502 735l786 727h144l-809 -733l563 -729h-129l-555 729l-152 -729h-102l289 1368h-344l20 94h446z" />
<glyph unicode="&#x4a1;" horiz-adv-x="1071" d="M82 1006l20 81h433l-111 -524l573 524h146l-606 -534l403 -553h-127l-391 549l-113 -549h-98l209 1006h-338z" />
<glyph unicode="&#x4a2;" horiz-adv-x="1423" d="M963 0l151 719h-760l-149 -719h-103l310 1462h102l-139 -649h760l137 649h100l-289 -1368h168l-98 -450h-104l79 356h-165z" />
<glyph unicode="&#x4a3;" horiz-adv-x="1235" d="M403 1087l-100 -479h625l104 479h101l-215 -1003h178l-103 -449h-100l84 365h-178l110 516h-624l-111 -516h-100l233 1087h96z" />
<glyph unicode="&#x4a4;" horiz-adv-x="1532" d="M1720 1368h-368l-289 -1368h-100l151 719h-760l-149 -719h-103l310 1462h102l-139 -649h760l137 649h467z" />
<glyph unicode="&#x4a5;" horiz-adv-x="1386" d="M901 0h-102l110 516h-624l-111 -516h-100l233 1087h96l-100 -479h625l104 479h434l-20 -81h-330z" />
<glyph unicode="&#x4a6;" horiz-adv-x="2001" d="M1063 0h-100l288 1366h-757l-289 -1366h-103l310 1462h960l-143 -676q68 11 129 11q236 0 365.5 -134.5t129.5 -377.5q0 -237 -87 -424.5t-238.5 -280t-356.5 -92.5q-134 0 -229 41v104q119 -51 238 -51q169 0 295.5 81t200 247t73.5 369q0 201 -108.5 313.5 t-299.5 112.5q-62 0 -131 -9z" />
<glyph unicode="&#x4a7;" horiz-adv-x="1626" d="M1128 1087l-100 -471q68 13 135 13q112 0 195.5 -47.5t131.5 -141t48 -229.5q0 -202 -67.5 -370.5t-184.5 -253.5t-268 -85q-104 0 -178 37v99q88 -48 186 -48q122 0 215 79.5t144 222.5t51 317q0 154 -75 242t-208 88q-63 0 -145 -17l-109 -522h-104l213 995h-625 l-213 -995h-100l231 1087h827z" />
<glyph unicode="&#x4a8;" horiz-adv-x="1464" d="M1389 854q0 -157 -52 -320.5t-144 -289.5t-208 -197q63 -37 170 -37q71 0 123 21v-92q-60 -21 -137 -21q-81 0 -151.5 23t-117.5 61q-76 -22 -180 -22q-250 0 -385 152t-135 427q0 259 90 473t253.5 332.5t377.5 118.5q125 0 246 -47l-43 -95q-105 48 -217 48 q-172 0 -307 -100.5t-215.5 -294.5t-80.5 -421q0 -246 111 -373.5t318 -127.5q41 0 94 8q-52 77 -75.5 171.5t-23.5 223.5q0 216 56.5 388.5t154 265t219.5 92.5q134 0 196.5 -90.5t62.5 -276.5zM905 111q115 70 200 188.5t130 266t45 294.5q0 142 -41 204t-117 62 q-83 0 -158 -85.5t-117 -233.5t-42 -328q0 -131 24.5 -217.5t75.5 -150.5z" />
<glyph unicode="&#x4a9;" horiz-adv-x="1212" d="M705 109q121 73 207.5 223.5t86.5 285.5q0 88 -35 130.5t-92 42.5q-108 0 -174.5 -112.5t-66.5 -297.5q0 -96 18 -160t56 -112zM893 -55q-126 0 -217 63q-76 -28 -174 -28q-195 0 -297.5 114.5t-102.5 333.5q0 200 62.5 354.5t180 238t276.5 83.5q93 0 167 -21l-18 -92 q-67 27 -154 27q-122 0 -213.5 -69t-144.5 -209.5t-53 -315.5q0 -171 76.5 -262.5t222.5 -91.5q54 0 98 10q-74 107 -74 289q0 144 44 264.5t123.5 185t185.5 64.5q101 0 161 -64t60 -190q0 -169 -87 -326t-235 -248q55 -24 127 -24q58 0 117 16v-86q-48 -16 -131 -16z" />
<glyph unicode="&#x4aa;" horiz-adv-x="1169" d="M961 1389q-197 0 -351.5 -104.5t-245 -304.5t-90.5 -441q0 -225 110.5 -346t317.5 -121q140 0 304 51v-94q-156 -49 -316 -49q-252 0 -386 145t-134 410q0 266 104.5 488t284.5 341t402 119q177 0 307 -68l-45 -90q-55 30 -124.5 47t-137.5 17zM467 -340q118 0 118 160 q0 100 -32 180h84q43 -115 43 -190q0 -102 -54.5 -163t-158.5 -61q-50 0 -82 15l14 69q27 -10 68 -10z" />
<glyph unicode="&#x4ab;" horiz-adv-x="887" d="M477 -20q-174 0 -274.5 110.5t-100.5 306.5q0 193 73.5 361.5t198.5 257t290 88.5q134 0 241 -43l-28 -90q-107 47 -218 47q-129 0 -232.5 -77t-162.5 -222t-59 -320q0 -158 73.5 -243.5t208.5 -85.5q71 0 131.5 13t131.5 46v-92q-116 -57 -273 -57zM322 -340 q118 0 118 160q0 100 -32 180h84q43 -115 43 -190q0 -102 -54.5 -163t-158.5 -61q-50 0 -82 15l14 69q27 -10 68 -10z" />
<glyph unicode="&#x4ac;" horiz-adv-x="985" d="M336 0l289 1368h-432l20 94h973l-19 -94h-440l-270 -1274h168l-99 -450h-104l80 356h-166z" />
<glyph unicode="&#x4ad;" horiz-adv-x="1784" d="M1530 856q0 77 -43 119.5t-119 42.5q-157 0 -277.5 -137.5t-168.5 -362.5l-109 -518h-102l147 674q25 125 25 162q0 182 -154 182q-106 0 -200 -67.5t-159 -188.5t-100 -287l-100 -475h-98l231 1087h80l-33 -210h6q80 113 181.5 170t212.5 57q106 0 163 -67t60 -195h6 q77 129 181 195.5t222 66.5q117 0 182.5 -61.5t65.5 -176.5q0 -29 -2.5 -56.5t-19.5 -119.5l-82 -371q-23 -103 -23 -159q0 -97 84 -97q31 0 64 7l-101 -435h-100l80 351q-61 7 -95 51.5t-34 114.5q0 21 3.5 48t7 49t93.5 431q25 120 25 176z" />
<glyph unicode="&#x4ae;" horiz-adv-x="965" d="M494 645l544 817h117l-631 -932l-108 -530h-105l119 545l-237 917h100z" />
<glyph unicode="&#x4af;" horiz-adv-x="895" d="M360 102q32 67 63 127.5t472 857.5h102l-612 -1103l-102 -476h-93l101 478l-178 1101h100l109 -735q18 -118 32 -250h6z" />
<glyph unicode="&#x4b0;" horiz-adv-x="965" d="M494 645l544 817h117l-631 -932l-10 -45h289l-19 -82h-286l-82 -403h-105l88 403h-268l19 82h266l14 60l-237 917h100z" />
<glyph unicode="&#x4b1;" horiz-adv-x="895" d="M45 0h244l-176 1087h100l109 -735q18 -118 32 -250h6q32 67 63 127.5t472 857.5h102l-604 -1087h244l-19 -82h-247l-88 -410h-93l86 410h-249z" />
<glyph unicode="&#x4b2;" horiz-adv-x="1014" d="M989 94l-98 -450h-105l80 356h-94l-254 678l-526 -678h-127l608 766l-272 696h106l240 -626l483 626h119l-555 -719l248 -649h147z" />
<glyph unicode="&#x4b3;" horiz-adv-x="942" d="M870 80l-102 -445h-100l82 365h-84l-224 479l-393 -479h-121l471 555l-245 528h100l207 -462l373 462h120l-448 -534l221 -469h143z" />
<glyph unicode="&#x4b4;" horiz-adv-x="1659" d="M625 1368h-432l20 94h973l-19 -94h-440l-268 -1274h758l290 1368h101l-289 -1368h168l-98 -450h-105l80 356h-1028z" />
<glyph unicode="&#x4b5;" horiz-adv-x="1346" d="M866 1006h-327l-133 -617q-23 -99 -23 -158q0 -74 47.5 -117.5t138.5 -43.5q109 0 206 65t163 183t102 284l105 485h98l-164 -765q-22 -104 -22 -170q0 -89 84 -89q23 0 63 7l-100 -435h-100l79 351q-65 12 -93 53t-28 116l3 56h-7q-78 -109 -183 -168t-222 -59 q-133 0 -200.5 62t-67.5 181q0 60 22 170l131 609h-354l20 81h783z" />
<glyph unicode="&#x4b6;" horiz-adv-x="1249" d="M788 0l132 621q-219 -91 -408 -91q-146 0 -226.5 69.5t-80.5 201.5q0 64 22 164l105 497h102l-102 -483q-25 -116 -25 -172q0 -92 57 -139t162 -47q195 0 412 90l160 751h100l-289 -1368h168l-98 -450h-105l80 356h-166z" />
<glyph unicode="&#x4b7;" horiz-adv-x="1124" d="M831 627h-8q-161 -221 -401 -221q-128 0 -197 60t-69 177q0 74 22 176l58 268h100q-69 -318 -75.5 -362t-6.5 -72q0 -74 44.5 -117.5t141.5 -43.5q163 0 290 135.5t175 369.5l19 90h98l-215 -1003h178l-102 -449h-101l84 365h-178l84 399q24 122 59 228z" />
<glyph unicode="&#x4b8;" horiz-adv-x="1192" d="M453 221l65 309h-6q-146 0 -226.5 69.5t-80.5 201.5q0 64 22 164l105 497h102l-102 -483q-25 -116 -25 -172q0 -92 57 -139t162 -47h13l79 376h87l-80 -370q144 16 313 84l160 751h100l-309 -1462h-101l132 621q-153 -66 -314 -86l-67 -314h-86z" />
<glyph unicode="&#x4b9;" horiz-adv-x="1098" d="M336 1087q-69 -318 -75.5 -362t-6.5 -72q0 -74 43.5 -117.5t138.5 -43.5l66 307h86l-64 -297q137 32 238.5 164.5t142.5 330.5l19 90h98l-234 -1087h-102q50 229 75 345.5t70 281.5h-8q-131 -182 -317 -215l-55 -267h-86l53 261q-128 0 -195 61.5t-67 175.5q0 74 22 176 l58 268h100z" />
<glyph unicode="&#x4ba;" horiz-adv-x="1274" d="M510 1462l-131 -620q212 90 407 90q147 0 227.5 -69.5t80.5 -200.5q0 -62 -23 -164l-104 -498h-103l103 483q24 111 24 172q0 94 -57.5 140.5t-161.5 46.5q-189 0 -412 -90l-159 -752h-101l310 1462h100z" />
<glyph unicode="&#x4bb;" horiz-adv-x="1149" d="M758 0q69 321 75.5 364t6.5 70q0 74 -45 118t-142 44q-166 0 -292 -139t-173 -367l-18 -90h-98l233 1087h103q-49 -226 -74 -342t-72 -284h8q78 111 182 166t220 55q128 0 197 -62t69 -176q0 -42 -8 -93t-72 -351h-100z" />
<glyph unicode="&#x4bc;" horiz-adv-x="1552" d="M365 788q69 315 275.5 505t483.5 190q199 0 303.5 -85t104.5 -241q0 -234 -231.5 -347.5t-722.5 -113.5h-129q-9 -56 -9 -127q0 -245 106.5 -370t313.5 -125q106 0 210 20t228 68v-96q-126 -49 -231 -67.5t-217 -18.5q-243 0 -378.5 151t-135.5 424q0 85 8 141l-26 -1 q-88 0 -137.5 47.5t-49.5 127.5q0 70 31 121h100q-31 -54 -31 -112q0 -91 101 -91h33zM1124 1389q-231 0 -407.5 -158.5t-251.5 -442.5h131q416 0 620.5 89t204.5 272q0 117 -77 178.5t-220 61.5z" />
<glyph unicode="&#x4bd;" horiz-adv-x="1143" d="M836 1018q-131 0 -243.5 -115.5t-162.5 -308.5h49q516 0 516 270q0 70 -44.5 112t-114.5 42zM330 594q53 230 195 370t323 140q114 0 182 -61t68 -166q0 -181 -163.5 -276t-485.5 -95h-33q-6 -44 -6 -98q0 -165 74 -251.5t212 -86.5q133 0 277 73v-94q-140 -69 -299 -69 q-173 0 -270 109.5t-97 305.5q0 58 6 111l-26 -1q-88 0 -137.5 47.5t-49.5 127.5q0 70 31 121h96q-30 -55 -30 -113q0 -94 104 -94h29z" />
<glyph unicode="&#x4be;" horiz-adv-x="1552" d="M365 788q69 315 275.5 505t483.5 190q199 0 303.5 -85t104.5 -241q0 -234 -231.5 -347.5t-722.5 -113.5h-129q-9 -56 -9 -127q0 -245 106.5 -370t313.5 -125q106 0 210 20t228 68v-96q-118 -47 -216 -65.5t-201 -20.5l-72 -336h-104l75 340q-212 21 -328 170.5 t-116 400.5q0 85 8 141l-26 -1q-88 0 -137.5 47.5t-49.5 127.5q0 70 31 121h100q-31 -54 -31 -112q0 -91 101 -91h33zM1124 1389q-231 0 -407.5 -158.5t-251.5 -442.5h131q416 0 620.5 89t204.5 272q0 117 -77 178.5t-220 61.5z" />
<glyph unicode="&#x4bf;" horiz-adv-x="1143" d="M330 594q53 230 195 370t323 140q114 0 182 -61t68 -166q0 -181 -163.5 -276t-485.5 -95h-33q-6 -44 -6 -98q0 -165 74 -251.5t212 -86.5q133 0 277 73v-94q-131 -65 -287 -69l-63 -345h-101l68 353q-133 23 -208 127.5t-75 279.5q0 58 6 111l-26 -1q-88 0 -137.5 47.5 t-49.5 127.5q0 70 31 121h96q-30 -55 -30 -113q0 -94 104 -94h29zM836 1018q-131 0 -243.5 -115.5t-162.5 -308.5h49q516 0 516 270q0 70 -44.5 112t-114.5 42z" />
<glyph unicode="&#x4c0;" horiz-adv-x="504" d="M102 0l310 1462h98l-309 -1462h-99z" />
<glyph unicode="&#x4c1;" horiz-adv-x="1491" d="M641 760l-424 702h125l414 -704l147 704h103l-152 -706l692 706h140l-717 -725l434 -737h-123l-430 737l-154 -737h-102l158 739l-699 -739h-141zM1345 1866q-17 -137 -110.5 -212t-243.5 -75q-140 0 -205.5 58t-65.5 155q0 38 13 74h82q-8 -45 -8 -62q0 -68 42.5 -103.5 t143.5 -35.5q231 0 258 201h94z" />
<glyph unicode="&#x4c2;" horiz-adv-x="1581" d="M862 602h162q28 149 96.5 262t170.5 176.5t233 63.5q77 0 135 -17l-19 -92q-57 19 -127 19q-113 0 -206.5 -76t-150 -218.5t-56.5 -301.5q0 -177 59 -262.5t184 -85.5q53 0 113 10v-88q-72 -12 -121 -12q-334 0 -334 419q0 46 9 115h-166l-109 -514h-96l109 514h-158 q-30 -160 -100 -280.5t-173 -187t-233 -66.5q-75 0 -135 16l18 92q56 -18 127 -18q116 0 210 79t149 219.5t55 297.5q0 177 -59 262.5t-185 85.5q-52 0 -112 -10v88q72 12 120 12q334 0 334 -420q0 -50 -4 -82h164l104 485h95zM1319 1528q-17 -137 -110.5 -212t-243.5 -75 q-140 0 -205.5 58t-65.5 155q0 38 13 74h82q-8 -45 -8 -62q0 -68 42.5 -103.5t143.5 -35.5q231 0 258 201h94z" />
<glyph unicode="&#x4c3;" horiz-adv-x="1204" d="M498 752q40 4 82 4q228 0 352.5 -127.5t124.5 -364.5q0 -233 -86 -414.5t-238 -271.5t-358 -90q-135 0 -230 41v104q119 -51 238 -51q171 0 298 78.5t199 238t72 359.5q0 195 -104.5 300.5t-302.5 105.5q-97 0 -205 -19l-135 -645h-103l310 1462h102l-158 -727l787 727 h143z" />
<glyph unicode="&#x4c4;" horiz-adv-x="942" d="M449 598q173 -5 262.5 -112.5t89.5 -295.5q0 -203 -67.5 -371t-183.5 -252.5t-269 -84.5q-101 0 -179 37v98q86 -47 187 -47q122 0 215 80t143.5 222t50.5 316q0 159 -78.5 245.5t-228.5 86.5q-61 0 -117 -10l-104 -510h-98l225 1087h98l-110 -524l573 524h146z" />
<glyph unicode="&#x4c5;" horiz-adv-x="1325" d="M1153 1368h-434l-40 -137q-132 -452 -217 -706t-142 -354.5t-129 -147t-173 -46.5q-54 0 -102 17v96q45 -16 102 -16q78 0 132.5 44t104 143.5t141 383t245.5 817.5h633l-291 -1368h164l-217 -450h-115l209 356h-160z" />
<glyph unicode="&#x4c6;" horiz-adv-x="1059" d="M844 1006q-38 6 -74 6q-92 0 -152 -39.5t-112 -134t-123 -306.5q-86 -255 -141 -354t-121 -143.5t-162 -44.5q-37 0 -61 8v90q29 -8 59 -8q74 0 122 38t94.5 131t121.5 312q84 249 146 348.5t143 143t200 43.5q81 0 172 -17l-215 -999h164l-200 -447h-117l207 367h-166z " />
<glyph unicode="&#x4c7;" horiz-adv-x="1366" d="M420 -508q-140 0 -254 45v105q44 -20 122 -37t142 -17q234 0 366.5 130.5t194.5 418.5l123 582h-760l-149 -719h-103l310 1462h102l-139 -649h760l137 649h100l-280 -1329q-72 -339 -231 -490t-441 -151z" />
<glyph unicode="&#x4c8;" horiz-adv-x="1208" d="M420 -498q-102 0 -178 37v99q88 -48 186 -48q146 0 234.5 93.5t134.5 306.5l112 526h-624l-111 -516h-100l233 1087h96l-100 -479h625l104 479h101l-240 -1132q-43 -169 -103.5 -263t-151 -142t-218.5 -48z" />
<glyph unicode="&#x4c9;" horiz-adv-x="1423" d="M1114 719h-760l-149 -719h-103l310 1462h102l-139 -649h760l137 649h100l-289 -1368h164l-217 -450h-115l209 356h-161z" />
<glyph unicode="&#x4ca;" horiz-adv-x="1235" d="M1075 84l-201 -451h-116l207 367h-166l110 516h-624l-111 -516h-100l233 1087h96l-100 -479h625l104 479h101l-222 -1003h164z" />
<glyph unicode="&#x4cb;" horiz-adv-x="1192" d="M920 621q-219 -91 -408 -91q-146 0 -226.5 69.5t-80.5 201.5q0 64 22 164l105 497h102l-102 -483q-25 -116 -25 -172q0 -92 57 -139t162 -47q195 0 412 90l160 751h100l-309 -1462h-166l-72 -356h-104l94 450h168z" />
<glyph unicode="&#x4cc;" horiz-adv-x="1098" d="M336 1087q-69 -318 -75.5 -362t-6.5 -72q0 -74 44.5 -117.5t141.5 -43.5q163 0 290 135.5t175 369.5l19 90h98l-234 -1087h-139l-74 -367h-98l92 451h136l49 229q26 124 77 314h-8q-161 -221 -401 -221q-128 0 -197 60t-69 177q0 74 22 176l58 268h100z" />
<glyph unicode="&#x4cd;" horiz-adv-x="1706" d="M772 205l733 1257h150l-283 -1368h164l-217 -450h-115l209 356h-160l191 901q79 369 100 447h-6l-780 -1348h-51l-222 1348h-6q-20 -154 -78 -426l-196 -922h-96l309 1462h143l205 -1257h6z" />
<glyph unicode="&#x4ce;" horiz-adv-x="1368" d="M1141 930q-17 -32 -39 -70t-531 -860h-67l-146 723q-6 29 -17.5 99t-12.5 102l-193 -924h-90l231 1087h101l153 -798q27 -158 27 -170q26 55 62.5 117t529.5 851h117l-217 -1007h163l-200 -447h-117l207 367h-158z" />
<glyph unicode="&#x4cf;" horiz-adv-x="504" d="M102 0l310 1462h98l-309 -1462h-99z" />
<glyph unicode="&#x4d0;" horiz-adv-x="1059" d="M805 520h-512l-287 -520h-117l822 1468h67l201 -1468h-105zM793 612l-39 291q-31 242 -39 402q-30 -63 -64.5 -130t-306.5 -563h449zM1110 1866q-17 -137 -110.5 -212t-243.5 -75q-140 0 -205.5 58t-65.5 155q0 38 13 74h82q-8 -45 -8 -62q0 -68 42.5 -103.5t143.5 -35.5 q231 0 258 201h94z" />
<glyph unicode="&#x4d1;" horiz-adv-x="1133" d="M655 1104q232 0 279 -219h6l59 202h80l-229 -1087h-82l45 274h-6q-84 -142 -187 -218t-237 -76q-281 0 -281 374q0 197 75 376t200.5 276.5t277.5 97.5zM406 70q89 0 177.5 62t159 166t107.5 230t37 213q0 79 -26 141.5t-77 99t-127 36.5q-124 0 -224 -82t-164 -245.5 t-64 -325.5q0 -152 50 -223.5t151 -71.5zM1053 1528q-17 -137 -110.5 -212t-243.5 -75q-140 0 -205.5 58t-65.5 155q0 38 13 74h82q-8 -45 -8 -62q0 -68 42.5 -103.5t143.5 -35.5q231 0 258 201h94z" />
<glyph unicode="&#x4d2;" horiz-adv-x="1059" d="M805 520h-512l-287 -520h-117l822 1468h67l201 -1468h-105zM793 612l-39 291q-31 242 -39 402q-30 -63 -64.5 -130t-306.5 -563h449zM879 1704q0 49 20.5 78t56.5 29q54 0 54 -64q0 -48 -21 -77t-55 -29q-55 0 -55 63zM535 1704q0 49 20.5 78t56.5 29q54 0 54 -64 q0 -48 -21 -77t-55 -29q-55 0 -55 63z" />
<glyph unicode="&#x4d3;" horiz-adv-x="1133" d="M655 1104q232 0 279 -219h6l59 202h80l-229 -1087h-82l45 274h-6q-84 -142 -187 -218t-237 -76q-281 0 -281 374q0 197 75 376t200.5 276.5t277.5 97.5zM406 70q89 0 177.5 62t159 166t107.5 230t37 213q0 79 -26 141.5t-77 99t-127 36.5q-124 0 -224 -82t-164 -245.5 t-64 -325.5q0 -152 50 -223.5t151 -71.5zM821 1366q0 49 20.5 78t56.5 29q54 0 54 -64q0 -48 -21 -77t-55 -29q-55 0 -55 63zM477 1366q0 49 20.5 78t56.5 29q54 0 54 -64q0 -48 -21 -77t-55 -29q-55 0 -55 63z" />
<glyph unicode="&#x4d4;" horiz-adv-x="1640" d="M1403 0h-727l110 522h-444l-328 -522h-131l946 1462h883l-20 -94h-625l-117 -553h590l-20 -94h-588l-135 -627h626zM408 627h401l156 741h-88z" />
<glyph unicode="&#x4d5;" horiz-adv-x="1632" d="M1155 -20q-123 0 -211 60t-117 165l-39 -205h-77l41 254h-9q-94 -142 -189 -208t-208 -66q-120 0 -182 94t-62 270q0 206 70.5 384.5t192.5 277t274 98.5q106 0 166 -56.5t74 -156.5h10l59 192h66l-35 -186q139 207 350 207q112 0 175 -61.5t63 -172.5 q0 -179 -158.5 -271.5t-470.5 -92.5h-39q-8 -51 -8 -96q0 -161 69.5 -250.5t217.5 -89.5q69 0 133.5 21t130.5 52v-94q-80 -37 -147 -53t-140 -16zM369 70q67 0 138.5 42t134 117.5t106 170.5t63.5 199t20 165q0 118 -49 186t-141 68q-123 0 -223 -86t-156.5 -240 t-56.5 -340q0 -150 42.5 -216t121.5 -66zM1317 1018q-119 0 -232 -115.5t-172 -308.5h48q263 0 383 67t120 203q0 71 -38.5 112.5t-108.5 41.5z" />
<glyph unicode="&#x4d6;" horiz-adv-x="1067" d="M829 0h-727l310 1462h727l-21 -94h-624l-117 -553h590l-21 -94h-588l-135 -627h627zM1132 1866q-17 -137 -110.5 -212t-243.5 -75q-140 0 -205.5 58t-65.5 155q0 38 13 74h82q-8 -45 -8 -62q0 -68 42.5 -103.5t143.5 -35.5q231 0 258 201h94z" />
<glyph unicode="&#x4d7;" horiz-adv-x="928" d="M469 -20q-173 0 -270 109.5t-97 305.5q0 181 71 347t195.5 264t274.5 98q114 0 182 -61t68 -166q0 -181 -163.5 -276t-485.5 -95h-33q-6 -44 -6 -98q0 -165 74 -251.5t213 -86.5q132 0 276 73v-94q-140 -69 -299 -69zM631 1018q-131 0 -243.5 -115.5t-162.5 -308.5h49 q517 0 517 270q0 67 -43.5 110.5t-116.5 43.5zM993 1528q-17 -137 -110.5 -212t-243.5 -75q-140 0 -205.5 58t-65.5 155q0 38 13 74h82q-8 -45 -8 -62q0 -68 42.5 -103.5t143.5 -35.5q231 0 258 201h94z" />
<glyph unicode="&#x4d8;" horiz-adv-x="1356" d="M1290 907q0 -245 -107 -466.5t-285 -341t-396 -119.5q-199 0 -303.5 85t-104.5 240q0 236 231.5 348.5t723.5 112.5h129q8 50 8 127q0 244 -106.5 370t-313.5 126q-210 0 -438 -89v97q118 47 225.5 66.5t222.5 19.5q241 0 377.5 -151.5t136.5 -424.5zM502 74 q230 0 407 157t252 443h-131q-414 0 -619.5 -88.5t-205.5 -272.5q0 -118 77 -178.5t220 -60.5z" />
<glyph unicode="&#x4d9;" horiz-adv-x="928" d="M485 1104q173 0 270 -109.5t97 -306.5q0 -189 -75 -355.5t-197.5 -259.5t-268.5 -93q-114 0 -182 61t-68 166q0 181 163.5 276t486.5 95h32q7 37 7 98q0 165 -74 251.5t-213 86.5q-131 0 -277 -74v94q143 70 299 70zM324 66q132 0 244 116t161 307h-49q-516 0 -516 -270 q0 -69 43.5 -111t116.5 -42z" />
<glyph unicode="&#x4da;" horiz-adv-x="1356" d="M1290 907q0 -245 -107 -466.5t-285 -341t-396 -119.5q-199 0 -303.5 85t-104.5 240q0 236 231.5 348.5t723.5 112.5h129q8 50 8 127q0 244 -106.5 370t-313.5 126q-210 0 -438 -89v97q118 47 225.5 66.5t222.5 19.5q241 0 377.5 -151.5t136.5 -424.5zM502 74 q230 0 407 157t252 443h-131q-414 0 -619.5 -88.5t-205.5 -272.5q0 -118 77 -178.5t220 -60.5zM965 1704q0 49 20.5 78t56.5 29q54 0 54 -64q0 -48 -21 -77t-55 -29q-55 0 -55 63zM621 1704q0 49 20.5 78t56.5 29q54 0 54 -64q0 -48 -21 -77t-55 -29q-55 0 -55 63z" />
<glyph unicode="&#x4db;" horiz-adv-x="928" d="M485 1104q173 0 270 -109.5t97 -306.5q0 -189 -75 -355.5t-197.5 -259.5t-268.5 -93q-114 0 -182 61t-68 166q0 181 163.5 276t486.5 95h32q7 37 7 98q0 165 -74 251.5t-213 86.5q-131 0 -277 -74v94q143 70 299 70zM324 66q132 0 244 116t161 307h-49q-516 0 -516 -270 q0 -69 43.5 -111t116.5 -42zM720 1366q0 49 20.5 78t56.5 29q54 0 54 -64q0 -48 -21 -77t-55 -29q-55 0 -55 63zM376 1366q0 49 20.5 78t56.5 29q54 0 54 -64q0 -48 -21 -77t-55 -29q-55 0 -55 63z" />
</font>
</defs>
</svg>
